BitTorrentTracker PerecTracker.org
BitTorrentTracker PerecTracker.org
    
Регистрация  ·  Вход
 
 · 
Забыли пароль?

  • Последнее турне / Hin und weg (Кристиан Цюберт / Christian Zübert) [2014, Германия, драма, комедия, HDRip] VO (ViruseProject)

    Ответить на тему
     
    Автор Сообщение

    Light

    Создавать темы 24-Май-2015 09:30

           

    [Цитировать]

    Последнее турне / Hin und weg
    Год выпуска: 2014
    Страна: Германия
    Жанр: драма, комедия
    Продолжительность: 01:35:11
    Перевод: Одноголосый закадровый ViruseProject
    Субтитры: нет
    Режиссёр: Кристиан Цюберт / Christian Zübert
    В ролях: Флориан Давид Фиц, Юлиа Кошиц, Юрген Фогель, Мириам Штайн, Фолькер Брух, Йоханнес Алльмайер, Виктория Майер, Ханнелоре Эльснер, Симон Боер, Лена Дерри и др.
    Описание: Каждый год Ханнес и его жена Кики вместе со своими близкими друзьями совершают велосипедный тур. Направление поездки всякий раз задает кто-то один из их группы. В этом году на очереди Ханнес, и его точка назначения — Бельгия. Несмотря на плохую погоду, ухабистую дорогу и жару, команда отправляется в путь.



    скачать СЕМПЛ с multi-up
    Качество: HDRip
    Формат: AVI
    Видео кодек: XviD
    Аудио кодек: AC3
    Видео: 720x304 (2.37:1), 24.000 fps, XviD build 50 ~1997 kbps avg, 0.38 bit/pixel
    Аудио: 48 kHz, AC3 Dolby Digital, 2/0 (L,R) ch, ~192 kbps

    MediaInfo

    General
    Complete name : E:\ОЗВУЧКА\Hin.und.weg.2014.HDRip.ViruseProject.avi
    Format : AVI
    Format/Info : Audio Video Interleave
    File size : 1.46 GiB
    Duration : 1h 35mn
    Overall bit rate : 2 199 Kbps
    Writing application : VirtualDubMod 1.5.10.2 (build 2540/release)
    Writing library : VirtualDubMod build 2540/release
    Video
    ID : 0
    Format : MPEG-4 Visual
    Format profile : Advanced Simple@L5
    Format settings, BVOP : 1
    Format settings, QPel : No
    Format settings, GMC : No warppoints
    Format settings, Matrix : Default (MPEG)
    Codec ID : XVID
    Codec ID/Hint : XviD
    Duration : 1h 35mn
    Bit rate : 1 997 Kbps
    Width : 720 pixels
    Height : 304 pixels
    Display aspect ratio : 2.35:1
    Frame rate : 24.000 fps
    Color space : YUV
    Chroma subsampling : 4:2:0
    Bit depth : 8 bits
    Scan type : Progressive
    Compression mode : Lossy
    Bits/(Pixel*Frame) : 0.380
    Stream size : 1.33 GiB (91%)
    Writing library : XviD 1.2.1 (UTC 2008-12-04)
    Audio
    ID : 1
    Format : AC-3
    Format/Info : Audio Coding 3
    Mode extension : CM (complete main)
    Format settings, Endianness : Big
    Codec ID : 2000
    Duration : 1h 35mn
    Bit rate mode : Constant
    Bit rate : 192 Kbps
    Channel(s) : 2 channels
    Channel positions : Front: L R
    Sampling rate : 48.0 KHz
    Bit depth : 16 bits
    Compression mode : Lossy
    Stream size : 131 MiB (9%)
    Alignment : Split accross interleaves
    Interleave, duration : 42 ms (1.00 video frame)
    Interleave, preload duratio : 500 ms

    Скриншоты

    Скачать .torrent

    Скачать торрент-файл бесплатно и на максимальной скорости!

    Как скачивать? · Что такое торрент? · Рейтинг и ограничения

    !ВНИМАНИЕ!
    Сайт не распространяет и не хранит электронные версии произведений, а занимается лишь лишь предоставлением доступа к создаваемому пользователями каталогу ссылок на торрент-файлы, которые содержат только списки хеш-сумм, убедительная просьба с жалобами обращаться напрямую к пользователю. Файлы для обмена на трекере предоставлены пользователями сайта, и администрация не несёт ответственности за их содержание. Просьба не заливать файлы, защищенные авторскими правами, а также файлы нелегального содержания!


    _________________
    [Профиль] [ЛС]
    Показать сообщения:    
    Ответить на тему

    Текущее время: Сегодня, в 20:48

    Часовой пояс: GMT + 2



    Вы не можете начинать темы
    Вы не можете отвечать на сообщения
    Вы не можете редактировать свои сообщения
    Вы не можете удалять свои сообщения
    Вы не можете голосовать в опросах
    Вы не можете прикреплять файлы к сообщениям
    Вы не можете скачивать файлы