BitTorrentTracker PerecTracker.org
BitTorrentTracker PerecTracker.org
    
Регистрация  ·  Вход
 
 · 
Забыли пароль?

  • Жизнь по Нино / Het leven volgens Nino / Life According to Nino (Симона ван Дюссельдорп / Simone van Dusseldorp) [2014, Нидерланды, семейные, драма, DVDRip-AVC] VO + Sub Rus + Original Dut

    Ответить на тему
     
    Автор Сообщение

    Light

    Создавать темы 24-Май-2015 09:30

           

    [Цитировать]

    Жизнь по Нино / Het leven volgens Nino / Life According to Nino
    Страна: Нидерланды
    Жанр: семейные, драма
    Год выпуска: 2014
    Продолжительность: 01:17:15
    Перевод: Одноголосый закадровый
    Cубтитры: русские, английские
    Оригинальная аудиодорожка: нидерландский
    Режиссер: Симона ван Дюссельдорп / Simone van Dusseldorp
    В ролях: Рохан Тиммерманс / Rohan Timmermans, Аренд Баумейстер / Arend Bouwmeester, Koen De Graeve, Rifka Lodeizen, Serena Bank
    Описание: Казалось бы, у Нино самая счастливая в мире семья. Но все меняется в день его рождения, когда мама погибает в автокатастрофе. Отец впадает в глубокую депрессию и влачит существование на таблетках, старший брат проводит ночи в компании сверстников-хулиганов, а днем отсыпается. Никому нет дела до малыша Нино.
    Сэмпл: http://multi-up.com/1050056
    Качество видео: DVDRip-AVC
    Формат видео: MKV
    Видео: AVC at 2000 Кбит/сек : 720 x 320 (2.250) at 25.000 fps
    Аудио 1: MPEG Audio at 192 Кбит/сек: 2 канала, 48,0 КГц Language: ru
    Аудио 2: MPEG Audio at 192 Кбит/сек: 2 канала, 48,0 КГц Language: nl
    Формат субтитров: softsub (SRT)
    Доп. информация о субтитрах: Русские внешние (kidkong), английские встроенные отключаемые

    MediaInfo

    Общее
    Уникальный идентификатор : 227712716167062559539130162226268795906 (0xAB4FDFB67E8089448F4780A0D0D8F402)
    Полное имя : F:\С моей озвучкой\Жизнь по Нино\Het.Leven.Volgens.Nino.mkv
    Формат : Matroska
    Версия формата : Version 4 / Version 2
    Размер файла : 1,29 Гбайт
    Продолжительность : 1 ч. 17 м.
    Общий поток : 2387 Кбит/сек
    Дата кодирования : UTC 2015-05-23 19:49:20
    Программа кодирования : mkvmerge v7.9.0 ('Birds') 64bit
    Библиотека кодирования : libebml v1.3.1 + libmatroska v1.4.2
    _STATISTICS_WRITING_APP : mkvmerge v7.9.0 ('Birds') 64bit
    _STATISTICS_WRITING_DATE_UTC : 2015-05-23 19:49:20
    _STATISTICS_TAGS : BPS DURATION NUMBER_OF_FRAMES NUMBER_OF_BYTES
    DURATION : 01:17:14.640000000
    NUMBER_OF_FRAMES : 193110
    NUMBER_OF_BYTES : 111231360
    Видео
    Идентификатор : 1
    Формат : AVC
    Формат/Информация : Advanced Video Codec
    Профиль формата : Baseline@L3.0
    Параметр CABAC формата : Нет
    Параметр ReFrames формата : 2 кадра
    Идентификатор кодека : V_MPEG4/ISO/AVC
    Продолжительность : 1 ч. 17 м.
    Битрейт : 2000 Кбит/сек
    Ширина : 720 пикселей
    Высота : 320 пикселей
    Соотношение сторон : 2,25:1
    Режим частоты кадров : Постоянный
    Частота кадров : 25,000 кадров/сек
    Цветовое пространство : YUV
    Субдискретизация насыщенности : 4:2:0
    Битовая глубина : 8 бит
    Тип развёртки : Прогрессивная
    Бит/(Пиксели*Кадры) : 0.347
    Размер потока : 1,06 Гбайт (82%)
    Библиотека кодирования : x264 core 135
    Настройки программы : cabac=0 / ref=2 / deblock=1:0:0 / analyse=0x1:0x111 / me=hex / subme=4 / psy=1 / psy_rd=1.00:0.00 / mixed_ref=0 / me_range=16 / chroma_me=1 / trellis=1 / 8x8dct=0 / cqm=0 / deadzone=21,11 / fast_pskip=1 / chroma_qp_offset=0 / threads=3 / lookahead_threads=1 / sliced_threads=0 / nr=0 / decimate=1 / interlaced=0 / bluray_compat=0 / constrained_intra=0 / bframes=0 / weightp=0 / keyint=250 / keyint_min=25 / scenecut=40 / intra_refresh=0 / rc_lookahead=20 / rc=abr / mbtree=1 / bitrate=2000 / ratetol=1.0 / qcomp=0.60 / qpmin=0 / qpmax=69 / qpstep=4 / ip_ratio=1.40 / aq=1:1.00
    Default : Да
    Forced : Нет
    Аудио #1
    Идентификатор : 2
    Формат : MPEG Audio
    Версия формата : Version 1
    Профиль формата : Layer 3
    Режим : Joint stereo
    Идентификатор кодека : A_MPEG/L3
    Идентификатор кодека/Подсказка : MP3
    Продолжительность : 1 ч. 17 м.
    Вид битрейта : Постоянный
    Битрейт : 192 Кбит/сек
    Каналы : 2 канала
    Частота : 48,0 КГц
    Метод сжатия : С потерями
    Размер потока : 106 Мбайт (8%)
    Библиотека кодирования : LAME3.96
    Язык : Russian
    Default : Нет
    Forced : Нет
    Аудио #2
    Идентификатор : 3
    Формат : MPEG Audio
    Версия формата : Version 1
    Профиль формата : Layer 3
    Режим : Joint stereo
    Идентификатор кодека : A_MPEG/L3
    Идентификатор кодека/Подсказка : MP3
    Продолжительность : 1 ч. 17 м.
    Вид битрейта : Постоянный
    Битрейт : 192 Кбит/сек
    Каналы : 2 канала
    Частота : 48,0 КГц
    Метод сжатия : С потерями
    Размер потока : 106 Мбайт (8%)
    Язык : Dutch
    Default : Нет
    Forced : Нет
    Текст
    Идентификатор : 4
    Формат : UTF-8
    Идентификатор кодека : S_TEXT/UTF8
    Идентификатор кодека/Информация : UTF-8 Plain Text
    Язык : English
    Default : Нет
    Forced : Нет

    Скриншоты

    Скачать .torrent

    Скачать торрент-файл бесплатно и на максимальной скорости!

    Как скачивать? · Что такое торрент? · Рейтинг и ограничения

    !ВНИМАНИЕ!
    Сайт не распространяет и не хранит электронные версии произведений, а занимается лишь лишь предоставлением доступа к создаваемому пользователями каталогу ссылок на торрент-файлы, которые содержат только списки хеш-сумм, убедительная просьба с жалобами обращаться напрямую к пользователю. Файлы для обмена на трекере предоставлены пользователями сайта, и администрация не несёт ответственности за их содержание. Просьба не заливать файлы, защищенные авторскими правами, а также файлы нелегального содержания!


    _________________
    [Профиль] [ЛС]
    Показать сообщения:    
    Ответить на тему

    Текущее время: Сегодня, в 16:24

    Часовой пояс: GMT + 2



    Вы не можете начинать темы
    Вы не можете отвечать на сообщения
    Вы не можете редактировать свои сообщения
    Вы не можете удалять свои сообщения
    Вы не можете голосовать в опросах
    Вы не можете прикреплять файлы к сообщениям
    Вы не можете скачивать файлы