Register  ·  Log in
Forgot password?

  • Школа монстров: Монстрические мутации / Monster High: Freaky Fusion (Уильям Лау, Сильвен Блэ / William Lau, Sylvain Blais) [2014,мультфильм, BDRip] Dub

    Reply to topic
    Author Message


    Post 24-May-2015 02:06



    Школа монстров: Монстрические мутации
    Monster High: Freaky Fusion
    Страна: США
    Жанр: мультфильм
    Продолжительность: 01:13:33
    Год выпуска: 2014-Перевод : Профессиональный (дублированный)
    Русские субтитры: нет
    Режиссёр: Уильям Лау, Сильвен Блэ / William Lau, Sylvain Blais-Роли озвучивали: Лора Бэйли, Кейт Хиггинс, Паула Родс, Хэвиланд Стиллвелл, Америка Янг, Эрин Фицджералд, Дэйв Митчелл, Сью Свон, Джони Гуд, Селеста Хендерсон-Описание: Когда лаборатории в результате аварии появляются 4 новых монстра и 8 монстров перемешиваются телами, Фрэнки и новый гибридный студент пытается помочь ей привести друзей из Монстрических Мутаций в норму и остановить научный эксперимент, который пошел не так, прежде чем аппарат в лаборатории сломается окончательно.- -Качество: BDRip
    Формат: AVI
    Видео: 688x384 (1.79:1), 23.976 fps, XviD 66 ~1 281 kbps avg, 0.20 bit/pixel
    Аудио: 48.0 kHz, MPEG Layer 3, 2/0 (L,R) ch, ~128 kbps
    Субтитры: отсутствуют


    Complete name : D:\incarcare\rip gata\Школа.монстров.Монстрические.мутации.2014.BDRip.746[dragomire]
    Format : AVI
    Format/Info : Audio Video Interleave
    File size : 746 MiB
    Duration : 1h 13mn
    Overall bit rate : 1 419 Kbps
    Writing application : VirtualDubMod (build 2540/release)
    Writing library : VirtualDubMod build 2540/release
    ID : 0
    Format : MPEG-4 Visual
    Format profile : Advanced Simple@L5
    Format settings, BVOP : 1
    Format settings, QPel : No
    Format settings, GMC : No warppoints
    Format settings, Matrix : Custom
    Codec ID : XVID
    Codec ID/Hint : XviD
    Duration : 1h 13mn
    Bit rate : 1 281 Kbps
    Width : 688 pixels
    Height : 384 pixels
    Display aspect ratio : 16:9
    Frame rate : 23.976 fps
    Color space : YUV
    Chroma subsampling : 4:2:0
    Bit depth : 8 bits
    Scan type : Progressive
    Compression mode : Lossy
    Bits/(Pixel*Frame) : 0.202
    Stream size : 674 MiB (90%)
    Writing library : XviD 66
    ID : 1
    Format : MPEG Audio
    Format version : Version 1
    Format profile : Layer 3
    Codec ID : 55
    Codec ID/Hint : MP3
    Duration : 1h 13mn
    Bit rate mode : Constant
    Bit rate : 128 Kbps
    Channel(s) : 2 channels
    Sampling rate : 48.0 KHz
    Compression mode : Lossy
    Stream size : 67.3 MiB (9%)
    Alignment : Aligned on interleaves
    Interleave, duration : 42 ms (1.00 video frame)
    Interleave, preload duratio : 504 ms


    Download .torrent

    Download free and at maximum speed!

    How to Download? · What is a torrent? · Ratings and Limitations

    The site does not extend and does not store electronic(digital) versions of products, and only gives access to a reference catalogue created by users on torrent-files which contain only lists of the hash-sums, the earnest entreaty, with complaints(abuse) to access directly to the user. Files for an exchange on tracker are given by users of a site, and the administration does not bear the responsibility for their maintenance. The request to not fill in the files protected by copyrights, and also files of the illegal maintenance!

    [Profile] [PM]
    Display posts from previous:    
    Reply to topic

    The time now is: Today 14:13

    All times are GMT + 3 Hours

    You cannot post new topics in this forum
    You cannot reply to topics in this forum
    You cannot edit your posts in this forum
    You cannot delete your posts in this forum
    You cannot vote in polls in this forum
    You cannot attach files in this forum
    You cannot download files in this forum