BitTorrentTracker PerecTracker.org
BitTorrentTracker PerecTracker.org
    
Регистрация  ·  Вход
 
 · 
Забыли пароль?

  • Kingsman: Секретная служба / Kingsman: The Secret Service (Мэттью Вон / Matthew Vaughn ) [2014, Великобритания, Боевик, комедия, криминал, приключения, BDRip, HD (720p)] DUB + Original + sub (rus, eng, ukr)

    Ответить на тему
     
    Автор Сообщение

    rechyn

    Создавать темы 23-Май-2015 16:42

           

    [Цитировать]

    Kingsman: Секретная служба / Kingsman: The Secret Service
    -
    7.836 / 10 8.00 / 10
    -Год выпуска: 2014
    Страна: Великобритания
    Жанр: Боевик, комедия, криминал, приключения
    Продолжительность: 02:08:38
    Перевод: Дублированный (iTunes)
    Оригинальная аудиодорожка: Есть
    Cубтитры: Русские форсированные, русские полные, украинские полные, английские форсированные и английские полные
    Режиссёр: Мэттью Вон
    Сценарий: Джейн Голдман, Мэттью Вон, Марк Миллар
    Продюсер: Адам Болинг, Дэвид Рейд, Мэттью Вон
    Оператор: Джордж Ричмонд
    Композитор: Генри Джекман, Мэттью Марджесон
    Художник: Пол Кирби, Эндрю Эклэнд-Сноу, Стив Картер
    Монтаж: Эдди Хэмилтон, Джон Харрис
    В ролях: Тэрон Эджертон, Колин Фёрт, Сэмюэл Л. Джексон, Марк Стронг, Софи Куксон, Майкл Кейн, София Бутелла, Саманта Янус, Джофф Белл, Марк Хэмилл
    Бюджет: $81 000 000
    Сборы в США: $127 605 601
    Сборы в мире: + $275 540 412 = $403 146 013
    Сборы в России: $9 789 977
    Мировая премьера: 13 декабря 2014
    Премьера (РФ): 12 февраля 2015, «Двадцатый Век Фокс СНГ»
    Релиз на DVD: 11 июня 2015, «Двадцатый Век Фокс СНГ»
    Релиз на Blu-Ray: 11 июня 2015, «Двадцатый Век Фокс СНГ»
    Описание: Эггси — молодой парень, который прошел службу в морской пехоте и имеет очень высокий уровень интеллекта. Он мог бы добиться многого, но выбрал другой путь и стал мелким преступником. Однажды он знакомится с Гарри Хартом, которому его отец когда-то спас жизнь. Этот человек решил сделать все возможное, чтобы сделать жизнь Эггси лучше и открыть для него новые возможности.-Качество исходника: BDRemux (HDClub)
    Качество: BDRip
    Тип: HD (720p)
    Контейнер: M4V
    Видео: H.264, 1280x544, 2.40:1, 3 500 Kbps, 23.976 fps
    Аудио 1: Русский/Дублированный (iTunes), AAC / 2.0 / 157 Kbps / 48.0 KHz
    Аудио 2: Английский/Оригинальная дорожка , AAC / 2.0 / 159 Kbps / 48.0 KHz
    Аудио 3: Украинский/Дублированный (iTunes), AAC / 2.0 / 159 Kbps / 48.0 KHz
    Аудио 4: Русский/Дублированный (iTunes), AC-3 / 5.1 / 384 Kbps / 48.0 KHz
    Аудио 5: Английский/Оригинальная дорожка , AC-3 / 5.1 / 640 Kbps / 48.0 KHz
    Субтитры 1: Русские форсированные
    Субтитры 2: Английские форсированные
    Субтитры 3: Русские полные
    Субтитры 4: Английские полные
    Субтитры 5: Украинские полные
    -

    iTunes Meta Tags

    Sort Name: Kingsman: The Secret Service
    XID: Apple:vendor_id:2014-749540
    contentID: 957056432
    Copyright: © 2015 Twentieth Century Fox Film Corporation. All rights reserved.
    Screenwriters: Джейн Голдман, Мэттью Вон, Марк Миллар
    Producers: Адам Болинг, Дэвид Рейд, Мэттью Вон
    Director: Мэттью Вон
    Cast: Тэрон Эджертон, Колин Фёрт, Сэмюэл Л. Джексон, Марк Стронг, Софи Куксон, Майкл Кейн, София Бутелла, Саманта Янус, Джофф Белл, Марк Хэмилл, Станислав Тикунов, Виктор Вержбицкий, Владимир Антоник, Александр Коврижных, Борис Быстров
    Studio: 20th Century Fox
    Rating: 11
    Long Description: Эггси - молодой парень, который прошел службу в морской пехоте и имеет очень высокий уровень интеллекта. Он мог бы добиться многого, но выбрал другой путь и стал мелким преступником. Однажды он знакомится с Гарри Хартом, которому его отец когда-то спас жизнь. Этот человек решил сделать все возможное, чтобы сделать жизнь Эггси лучше и открыть для него новые возможности.
    Гарри рассказал ему, что является агентом секретной независимой организации, которая стоит на защите всего мира. Он предложил парню пройти обучение и стать новым членом их команды. Эггси принял предложение Харта, но сможет ли он справиться со всеми испытаниями и оправдать его надежды?..
    Description: Эггси - молодой парень, который прошел службу в морской пехоте и имеет очень высокий уровень интеллекта. Он мог бы добиться многого, но выбрал другой путь и стал мелким преступником. Однажды он знакомится с Гарри Хартом, которому его отец когда-то спас жизнь. Этот человек решил сделать все возможное, чтобы сделать жизнь Эггси лучше и открыть для него новые возможности.
    Release Date: 2014-12-13T08:00:00Z
    Genre: Action & Adventure
    Artist: Matthew Vaughn
    Name: Kingsman: The Secret Service

    MediaInfo

    General
    Complete name                            : /Users/imac/HandBrake/Kingsman- The Secret Service (720p HD).m4v
    Format                                   : MPEG-4
    Codec ID                                 : M4V
    File size                                : 4.73 GiB
    Duration                                 : 2h 8mn
    Overall bit rate mode                    : Variable
    Overall bit rate                         : 5 265 Kbps
    Movie name                               : Kingsman: The Secret Service
    Performer                                : Matthew Vaughn
    Genre                                    : Action & Adventure
    Recorded date                            : UTC 2014-12-13 08:00:00
    Encoded date                             : UTC 2015-05-23 12:07:02
    Tagged date                              : UTC 2015-05-23 12:19:01
    Copyright                                : © 2015 Twentieth Century Fox Film Corporation. All rights reserved.
    Cover                                    : Yes
    sonm                                     : Kingsman: The Secret Service
    desc                                     : Эггси - молодой парень, который прошел службу в морской пехоте и имеет очень высокий уровень интеллекта. Он мог бы добиться многого, но выбрал другой путь и стал мелким преступником. Однажды он знакомится с Гарри Хартом, которому его отец когда-то спас жизнь. Этот человек решил сделать все возможное, чтобы сделать жизнь Эггси лучше и открыть для него новые возможности.
    ldes                                     : Эггси - молодой парень, который прошел службу в морской пехоте и имеет очень высокий уровень интеллекта. Он мог бы добиться многого, но выбрал другой путь и стал мелким преступником. Однажды он знакомится с Гарри Хартом, которому его отец когда-то спас жизнь. Этот человек решил сделать все возможное, чтобы сделать жизнь Эггси лучше и открыть для него новые возможности.  / Гарри рассказал ему, что является агентом секретной независимой организации, которая стоит на защите всего мира. Он предложил парню пройти обучение и стать новым членом их команды. Эггси принял предложение Харта, но сможет ли он справиться со всеми испытаниями и оправдать его надежды?..
    hdvd                                     : 1
    stik                                     : 9
    rtng                                     : 0
    cnID                                     : 957056432
    xid                                      : Apple:vendor_id:2014-749540
    iTunEXTC                                 : mpaa|R|400|
    iTunMOVI                                 : <?xml version="1.0" encoding="UTF-8"?> / <!DOCTYPE plist PUBLIC "-//Apple//DTD PLIST 1.0//EN" "http://anonym.to/?http://www.apple.com/DTDs/PropertyList-1.0.dtd"> / <plist version="1.0"> / <dict> /  <key>cast</key> /  <array> /   <dict> /    <key>name</key> /    <string>Тэрон Эджертон</string> /   </dict> /   <dict> /    <key>name</key> /    <string>Колин Фёрт</string> /   </dict> /   <dict> /    <key>name</key> /    <string>Сэмюэл Л. Джексон</string> /   </dict> /   <dict> /    <key>name</key> /    <string>Марк Стронг</string> /   </dict> /   <dict> /    <key>name</key> /    <string>Софи Куксон</string> /   </dict> /   <dict> /    <key>name</key> /    <string>Майкл Кейн</string> /   </dict> /   <dict> /    <key>name</key> /    <string>София Бутелла</string> /   </dict> /   <dict> /    <key>name</key> /    <string>Саманта Янус</string> /   </dict> /   <dict> /    <key>name</key> /    <string>Джофф Белл</string> /   </dict> /   <dict> /    <key>name</key> /    <string>Марк Хэмилл</string> /   </dict> /   <dict> /    <key>name</key> /    <string>Станислав Тикунов</string> /   </dict> /   <dict> /    <key>name</key> /    <string>Виктор Вержбицкий</string> /   </dict> /   <dict> /    <key>name</key> /    <string>Владимир Антоник</string> /   </dict> /   <dict> /    <key>name</key> /    <string>Александр Коврижных</string> /   </dict> /   <dict> /    <key>name</key> /    <string>Борис Быстров</string> /   </dict> /  </array> /  <key>directors</key> /  <array> /   <dict> /    <key>name</key> /    <string>Мэттью Вон</string> /   </dict> /  </array> /  <key>producers</key> /  <array> /   <dict> /    <key>name</key> /    <string>Адам Болинг</string> /   </dict> /   <dict> /    <key>name</key> /    <string>Дэвид Рейд</string> /   </dict> /   <dict> /    <key>name</key> /    <string>Мэттью Вон</string> /   </dict> /  </array> /  <key>screenwriters</key> /  <array> /   <dict> /    <key>name</key> /    <string>Джейн Голдман</string> /   </dict> /   <dict> /    <key>name</key> /    <string>Мэттью Вон</string> /   </dict> /   <dict> /    <key>name</key> /    <string>Марк Миллар</string> /   </dict> /  </array> /  <key>studio</key> /  <string>20th Century Fox</string> / </dict> / </plist>
    Video #1
    ID                                       : 1
    Format                                   : AVC
    Format/Info                              : Advanced Video Codec
    Format profile                           : High@L3.1
    Format settings, CABAC                   : No
    Format settings, ReFrames                : 3 frames
    Codec ID                                 : avc1
    Codec ID/Info                            : Advanced Video Coding
    Duration                                 : 2h 8mn
    Bit rate mode                            : Variable
    Bit rate                                 : 3 500 Kbps
    Width                                    : 1 280 pixels
    Height                                   : 544 pixels
    Display aspect ratio                     : 2.35:1
    Frame rate mode                          : Variable
    Frame rate                               : 23.976 fps
    Minimum frame rate                       : 23.974 fps
    Maximum frame rate                       : 23.981 fps
    Color space                              : YUV
    Chroma subsampling                       : 4:2:0
    Bit depth                                : 8 bits
    Scan type                                : Progressive
    Bits/(Pixel*Frame)                       : 0.210
    Stream size                              : 3.14 GiB (66%)
    Writing library                          : x264 core 142 r2479 dd79a61
    Encoding settings                        : cabac=0 / ref=3 / deblock=1:-3:-3 / analyse=0x3:0x113 / me=umh / subme=9 / psy=1 / psy_rd=1.00:0.15 / mixed_ref=1 / me_range=32 / chroma_me=1 / trellis=0 / 8x8dct=1 / cqm=0 / deadzone=21,11 / fast_pskip=0 / chroma_qp_offset=-2 / threads=36 / lookahead_threads=3 / sliced_threads=0 / nr=0 / decimate=0 / interlaced=0 / bluray_compat=0 / constrained_intra=0 / bframes=3 / b_pyramid=0 / b_adapt=2 / b_bias=0 / direct=1 / weightb=0 / open_gop=0 / weightp=0 / keyint=240 / keyint_min=24 / scenecut=40 / intra_refresh=0 / rc_lookahead=40 / rc=2pass / mbtree=1 / bitrate=3500 / ratetol=1.0 / qcomp=0.65 / qpmin=0 / qpmax=69 / qpstep=4 / cplxblur=20.0 / qblur=0.5 / vbv_maxrate=9500 / vbv_bufsize=9500 / nal_hrd=none / filler=0 / ip_ratio=1.40 / aq=1:1.10
    Language                                 : English
    Encoded date                             : UTC 2015-05-23 12:07:02
    Tagged date                              : UTC 2015-05-23 12:07:15
    Color primaries                          : BT.709-5, BT.1361, IEC 61966-2-4, SMPTE RP177
    Transfer characteristics                 : BT.709-5, BT.1361
    Matrix coefficients                      : BT.709-5, BT.1361, IEC 61966-2-4 709, SMPTE RP177
    Video #2
    ID                                       : 13
    Format                                   : JPEG
    Codec ID                                 : jpeg
    Duration                                 : 2h 8mn
    Bit rate mode                            : Variable
    Bit rate                                 : 1 671 bps
    Width                                    : 640 pixels
    Height                                   : 272 pixels
    Display aspect ratio                     : 2.35:1
    Frame rate mode                          : Variable
    Frame rate                               : 0.005 fps
    Minimum frame rate                       : 0.002 fps
    Maximum frame rate                       : 0.013 fps
    Color space                              : YUV
    Chroma subsampling                       : 4:2:0
    Bit depth                                : 8 bits
    Compression mode                         : Lossy
    Bits/(Pixel*Frame)                       : 1.920
    Stream size                              : 1.43 MiB (0%)
    Language                                 : English
    Encoded date                             : UTC 2015-05-23 12:16:16
    Tagged date                              : UTC 2015-05-23 12:16:16
    Audio #1
    ID                                       : 2
    Format                                   : AAC
    Format/Info                              : Advanced Audio Codec
    Format profile                           : LC
    Codec ID                                 : 40
    Duration                                 : 2h 8mn
    Bit rate mode                            : Variable
    Bit rate                                 : 157 Kbps
    Maximum bit rate                         : 241 Kbps
    Channel(s)                               : 2 channels
    Channel positions                        : Front: L R
    Sampling rate                            : 48.0 KHz
    Compression mode                         : Lossy
    Stream size                              : 145 MiB (3%)
    Language                                 : Russian
    Encoded date                             : UTC 2015-05-23 12:07:02
    Tagged date                              : UTC 2015-05-23 12:07:15
    Audio #2
    ID                                       : 3
    Format                                   : AAC
    Format/Info                              : Advanced Audio Codec
    Format profile                           : LC
    Codec ID                                 : 40
    Duration                                 : 2h 8mn
    Bit rate mode                            : Variable
    Bit rate                                 : 159 Kbps
    Maximum bit rate                         : 235 Kbps
    Channel(s)                               : 2 channels
    Channel positions                        : Front: L R
    Sampling rate                            : 48.0 KHz
    Compression mode                         : Lossy
    Stream size                              : 146 MiB (3%)
    Language                                 : English
    Encoded date                             : UTC 2015-05-23 12:07:02
    Tagged date                              : UTC 2015-05-23 12:07:18
    Audio #3
    ID                                       : 4
    Format                                   : AAC
    Format/Info                              : Advanced Audio Codec
    Format profile                           : LC
    Codec ID                                 : 40
    Duration                                 : 2h 8mn
    Bit rate mode                            : Variable
    Bit rate                                 : 158 Kbps
    Maximum bit rate                         : 236 Kbps
    Channel(s)                               : 2 channels
    Channel positions                        : Front: L R
    Sampling rate                            : 48.0 KHz
    Compression mode                         : Lossy
    Stream size                              : 146 MiB (3%)
    Language                                 : Ukrainian
    Encoded date                             : UTC 2015-05-23 12:07:02
    Tagged date                              : UTC 2015-05-23 12:07:15
    Audio #4
    ID                                       : 5
    Format                                   : AC-3
    Format/Info                              : Audio Coding 3
    Mode extension                           : CM (complete main)
    Format settings, Endianness              : Big
    Codec ID                                 : ac-3
    Duration                                 : 2h 8mn
    Bit rate mode                            : Constant
    Bit rate                                 : 640 Kbps
    Channel(s)                               : 6 channels
    Channel positions                        : Front: L C R, Side: L R, LFE
    Sampling rate                            : 48.0 KHz
    Bit depth                                : 16 bits
    Compression mode                         : Lossy
    Stream size                              : 589 MiB (12%)
    Language                                 : Russian
    Encoded date                             : UTC 2015-05-23 12:07:02
    Tagged date                              : UTC 2015-05-23 12:07:12
    Audio #5
    ID                                       : 6
    Format                                   : AC-3
    Format/Info                              : Audio Coding 3
    Mode extension                           : CM (complete main)
    Format settings, Endianness              : Big
    Codec ID                                 : ac-3
    Duration                                 : 2h 8mn
    Bit rate mode                            : Constant
    Bit rate                                 : 640 Kbps
    Channel(s)                               : 6 channels
    Channel positions                        : Front: L C R, Side: L R, LFE
    Sampling rate                            : 48.0 KHz
    Bit depth                                : 16 bits
    Compression mode                         : Lossy
    Stream size                              : 589 MiB (12%)
    Language                                 : English
    Encoded date                             : UTC 2015-05-23 12:14:02
    Tagged date                              : UTC 2015-05-23 12:14:06
    Text #1
    ID                                       : 7
    Format                                   : Timed text
    Muxing mode                              : sbtl
    Codec ID                                 : tx3g
    Duration                                 : 2h 8mn
    Bit rate mode                            : Variable
    Bit rate                                 : 2 bps
    Stream size                              : 2.18 KiB (0%)
    Language                                 : Russian
    Encoded date                             : UTC 2015-05-23 12:16:07
    Tagged date                              : UTC 2015-05-23 12:16:07
    Text #2
    ID                                       : 8
    Format                                   : Timed text
    Muxing mode                              : sbtl
    Codec ID                                 : tx3g
    Duration                                 : 44mn 7s
    Bit rate mode                            : Variable
    Bit rate                                 : 1 bps
    Stream size                              : 326 Bytes (0%)
    Language                                 : English
    Encoded date                             : UTC 2015-05-23 12:16:07
    Tagged date                              : UTC 2015-05-23 12:16:07
    Text #3
    ID                                       : 9
    Format                                   : Timed text
    Muxing mode                              : sbtl
    Codec ID                                 : tx3g
    Duration                                 : 2h 8mn
    Bit rate mode                            : Variable
    Bit rate                                 : 100 bps
    Stream size                              : 93.6 KiB (0%)
    Language                                 : Russian
    Encoded date                             : UTC 2015-05-23 12:16:07
    Tagged date                              : UTC 2015-05-23 12:16:07
    Text #4
    ID                                       : 10
    Format                                   : Timed text
    Muxing mode                              : sbtl
    Codec ID                                 : tx3g
    Duration                                 : 2h 1mn
    Bit rate mode                            : Variable
    Bit rate                                 : 66 bps
    Stream size                              : 59.1 KiB (0%)
    Language                                 : English
    Encoded date                             : UTC 2015-05-23 12:16:07
    Tagged date                              : UTC 2015-05-23 12:16:07
    Text #5
    ID                                       : 11
    Format                                   : Timed text
    Muxing mode                              : sbtl
    Codec ID                                 : tx3g
    Duration                                 : 2h 8mn
    Bit rate mode                            : Variable
    Bit rate                                 : 103 bps
    Stream size                              : 96.5 KiB (0%)
    Language                                 : Ukrainian
    Encoded date                             : UTC 2015-05-23 12:16:07
    Tagged date                              : UTC 2015-05-23 12:16:07
    Text #6
    ID                                       : 12
    Format                                   : Apple text
    Codec ID                                 : text
    Duration                                 : 2h 8mn
    Bit rate mode                            : Variable
    Bit rate                                 : 1 bps
    Stream size                              : 855 Bytes (0%)
    Language                                 : English
    Encoded date                             : UTC 2015-05-23 12:16:07
    Tagged date                              : UTC 2015-05-23 12:16:07
    Menu
    00:00:00.000                             : Chapter 1
    00:02:55.509                             : Chapter 2
    00:04:50.707                             : Chapter 3
    00:08:33.680                             : Chapter 4
    00:11:49.918                             : Chapter 5
    00:13:04.617                             : Chapter 6
    00:15:58.040                             : Chapter 7
    00:18:26.022                             : Chapter 8
    00:23:48.093                             : Chapter 9
    00:25:37.369                             : Chapter 10
    00:29:53.792                             : Chapter 11
    00:32:22.357                             : Chapter 12
    00:33:44.981                             : Chapter 13
    00:36:57.966                             : Chapter 14
    00:38:46.699                             : Chapter 15
    00:42:43.102                             : Chapter 16
    00:45:00.948                             : Chapter 17
    00:47:39.356                             : Chapter 18
    00:53:44.638                             : Chapter 19
    00:57:25.275                             : Chapter 20
    01:03:26.594                             : Chapter 21
    01:05:18.957                             : Chapter 22
    01:10:25.012                             : Chapter 23
    01:13:07.300                             : Chapter 24
    01:14:59.036                             : Chapter 25
    01:16:55.277                             : Chapter 26
    01:23:00.893                             : Chapter 27
    01:25:53.565                             : Chapter 28
    01:31:18.390                             : Chapter 29
    01:34:35.879                             : Chapter 30
    01:36:25.029                             : Chapter 31
    01:39:57.074                             : Chapter 32
    01:44:04.947                             : Chapter 33
    01:50:28.163                             : Chapter 34
    01:58:14.754                             : Chapter 35
    01:59:31.998                             : Chapter 36

    x264 лог

    x264 [info]: frame I:2305  Avg QP:14.40  size:109469
    x264 [info]: frame P:70798 Avg QP:16.71  size: 33222
    x264 [info]: frame B:111936 Avg QP:18.70  size:  6886
    x264 [info]: consecutive B-frames:  7.3% 25.2% 33.0% 34.6%
    x264 [info]: mb I  I16..4:  7.0% 56.0% 37.0%
    x264 [info]: mb P  I16..4:  1.6%  6.9%  3.6%  P16..4: 43.7% 27.3% 10.9%  0.0%  0.0%    skip: 6.1%
    x264 [info]: mb B  I16..4:  0.1%  0.7%  0.4%  B16..8: 41.7% 10.6%  1.4%  direct: 3.0%  skip:42.1%  L0:38.9% L1:51.8% BI: 9.4%
    x264 [info]: 8x8 transform intra:56.4% inter:40.6%
    x264 [info]: coded y,uvDC,uvAC intra: 86.1% 83.9% 64.6% inter: 22.5% 23.6% 15.8%
    x264 [info]: i16 v,h,dc,p: 29% 19%  5% 47%
    x264 [info]: i8 v,h,dc,ddl,ddr,vr,hd,vl,hu:  9%  9%  4% 11% 15% 14% 14% 11% 12%
    x264 [info]: i4 v,h,dc,ddl,ddr,vr,hd,vl,hu: 10% 11%  3% 12% 17% 15% 14% 10%  9%
    x264 [info]: i8c dc,h,v,p: 47% 20% 21% 12%
    x264 [info]: ref P L0: 74.0% 15.9% 10.1%
    x264 [info]: ref B L0: 79.8% 20.2%
    x264 [info]: kb/s:3498.64

    Скриншоты

    -

    Релиз подготовлен для просмотра на Apple TV, iPad, iPhone, iPod Touch.
    Для просмотра данного релиза на компьютере с ОС Windows рекомендуется использовать VLC media player
    Скачать .torrent

    Скачать торрент-файл бесплатно и на максимальной скорости!

    Как скачивать? · Что такое торрент? · Рейтинг и ограничения

    !ВНИМАНИЕ!
    Сайт не распространяет и не хранит электронные версии произведений, а занимается лишь лишь предоставлением доступа к создаваемому пользователями каталогу ссылок на торрент-файлы, которые содержат только списки хеш-сумм, убедительная просьба с жалобами обращаться напрямую к пользователю. Файлы для обмена на трекере предоставлены пользователями сайта, и администрация не несёт ответственности за их содержание. Просьба не заливать файлы, защищенные авторскими правами, а также файлы нелегального содержания!


    _________________
    [Профиль] [ЛС]
    Показать сообщения:    
    Ответить на тему

    Текущее время: Сегодня, в 07:48

    Часовой пояс: GMT + 2



    Вы не можете начинать темы
    Вы не можете отвечать на сообщения
    Вы не можете редактировать свои сообщения
    Вы не можете удалять свои сообщения
    Вы не можете голосовать в опросах
    Вы не можете прикреплять файлы к сообщениям
    Вы не можете скачивать файлы