BitTorrentTracker PerecTracker.org
BitTorrentTracker PerecTracker.org
    
Регистрация  ·  Вход
 
 · 
Забыли пароль?

  • Утопленник / The Drownsman (Чад Арчибальд / Chad Archibald) [2014, Канада, ужасы, фэнтези, триллер, WEB-DLRip] VO (PashaUp)

    Ответить на тему
     
    Автор Сообщение

    Light

    Создавать темы 23-Май-2015 16:42

           

    [Цитировать]

    Утопленник / The Drownsman
    Страна: Канада
    Жанр: ужасы, фэнтези, триллер
    Год выпуска: 2014
    Продолжительность: 01:25:47
    Перевод: Одноголосый (закадровый) [PashaUP]
    Оригинальная аудиодорожка: нет
    Cубтитры: нет
    Режиссер: Чад Арчибальд / Chad Archibald
    В ролях: Мишель Майлетт, Кэролайн Палмер, Джемма Бёрд Мэтисон, Сидни Кондрасс, Клэр Бастейбл, Райан Баррет, Джоан Нордстром, Сэмюэл Борштейн, Деррек Пилс, Бриэнн ТеБукхорс
    Описание:После драматичного инцидента на озере, жизнь Мэдисон наполнена страхом. Не в состоянии описать то, что случилось с ней, когда она была под водой, у девушки начинает развиваться гидрофобия. Измученная своим пост-травматическим стрессом, Мэдисон пытается отгородиться от мира, но её страх лишь усиливается, и ее начинает преследовать фигура жуткого незнакомца, появляющаяся каждый раз, стоит ей оказаться рядом с водой. Не в силах смотреть, как Мэдисон с каждым днем угасает, ее подруги решают перейти к радикальным мерам.

    Качество: WEB-DLRip
    Контейнер: AVI
    Видео: 720x304 (2.37:1), 23.976 fps, XviD build 50 ~2039 kbps avg, 0.39 bit/pixel
    Аудио: 48 kHz, AC3 Dolby Digital, 3/2 (L,C,R,l,r) + LFE ch, ~384 kbps

    MI

    General
    Complete name : C:\Users\Слава\Downloads\Утопленник_WEB-DLRip_1400_Некул.avi
    Format : AVI
    Format/Info : Audio Video Interleave
    File size : 1.46 GiB
    Duration : 1h 25mn
    Overall bit rate : 2 433 Kbps
    Writing application : VirtualDubMod 1.5.10.3 | www.virtualdub-fr.org || (build 2550/release)
    Writing library : VirtualDubMod build 2550/release
    Video
    ID : 0
    Format : MPEG-4 Visual
    Format profile : Advanced Simple@L5
    Format settings, BVOP : 1
    Format settings, QPel : No
    Format settings, GMC : No warppoints
    Format settings, Matrix : Default (MPEG)
    Codec ID : XVID
    Codec ID/Hint : XviD
    Duration : 1h 25mn
    Bit rate : 2 039 Kbps
    Width : 720 pixels
    Height : 304 pixels
    Display aspect ratio : 2.35:1
    Frame rate : 23.976 fps
    Color space : YUV
    Chroma subsampling : 4:2:0
    Bit depth : 8 bits
    Scan type : Progressive
    Compression mode : Lossy
    Bits/(Pixel*Frame) : 0.389
    Stream size : 1.22 GiB (84%)
    Writing library : XviD 1.2.1 (UTC 2008-12-04)
    Audio
    ID : 1
    Format : AC-3
    Format/Info : Audio Coding 3
    Mode extension : CM (complete main)
    Format settings, Endianness : Big
    Codec ID : 2000
    Duration : 1h 25mn
    Bit rate mode : Constant
    Bit rate : 384 Kbps
    Channel(s) : 6 channels
    Channel positions : Front: L C R, Side: L R, LFE
    Sampling rate : 48.0 KHz
    Bit depth : 16 bits
    Compression mode : Lossy
    Stream size : 236 MiB (16%)
    Alignment : Split accross interleaves
    Interleave, duration : 42 ms (1.00 video frame)
    Interleave, preload duration : 500 ms

    Скриншоты

    Скачать .torrent

    Скачать торрент-файл бесплатно и на максимальной скорости!

    Как скачивать? · Что такое торрент? · Рейтинг и ограничения

    !ВНИМАНИЕ!
    Сайт не распространяет и не хранит электронные версии произведений, а занимается лишь лишь предоставлением доступа к создаваемому пользователями каталогу ссылок на торрент-файлы, которые содержат только списки хеш-сумм, убедительная просьба с жалобами обращаться напрямую к пользователю. Файлы для обмена на трекере предоставлены пользователями сайта, и администрация не несёт ответственности за их содержание. Просьба не заливать файлы, защищенные авторскими правами, а также файлы нелегального содержания!


    _________________
    [Профиль] [ЛС]
    Показать сообщения:    
    Ответить на тему

    Текущее время: Сегодня, в 14:34

    Часовой пояс: GMT + 2



    Вы не можете начинать темы
    Вы не можете отвечать на сообщения
    Вы не можете редактировать свои сообщения
    Вы не можете удалять свои сообщения
    Вы не можете голосовать в опросах
    Вы не можете прикреплять файлы к сообщениям
    Вы не можете скачивать файлы