BitTorrentTracker PerecTracker.org
BitTorrentTracker PerecTracker.org
    
Регистрация  ·  Вход
 
 · 
Забыли пароль?

  • Отголоски / Echoes (Нилс Тимм / Nils Timm) [2014, США, триллер, HDRip] DVO (2D) + Original Eng

    Ответить на тему
     
    Автор Сообщение

    Light

    Создавать темы 23-Май-2015 12:30

           

    [Цитировать]

    Отголоски / Echoes
    Страна: США
    Жанр: триллер
    Год выпуска: 2014
    Продолжительность: 01:28:00
    Перевод: Любительский (двухголосый закадровый) 2D
    Cубтитры: нет
    Оригинальная аудиодорожка: английский
    Режиссер: Нилс Тимм / Nils Timm
    В ролях: Стивен Брэнд, Билли Уэрт, Кейт Френч, Стив Хэнкс, Дж.Дж. Нолан, Кэролайн Уитни Смит, Кевин Брюертон, Айвори Дортч
    Описание: Любовники приезжают в красивый дом, расположенный в глухой местности, провести романтические выходные. Однако вскоре оказывается, что мужчине срочно требуется уехать на совещание. Девушка уговаривает оставить ее одну, чтоы в тишине и на свежем воздухе, она смогла начать писать новое произведение. Однако надежды на покой и вдохновение рассеялись, когда вокруг начали происходить таинственные и необъяснимые явления.
    Доп. информация:
    Перевод: Antonio
    Сэмпл: http://multi-up.com/1048771
    Качество видео: HDRip
    Формат видео: AVI
    Видео: Xvid 720x304 23.98fps 1784Kbps
    Аудио 1: Dolby AC3 48000Hz stereo 160Kbps [русский]
    Аудио 2: Dolby AC3 48000Hz 6 Audio Channel 384Kbps [английский]

    MediaInfo

    General
    Complete name : D:\TORRENTS\Отголоски.avi
    Format : AVI
    Format/Info : Audio Video Interleave
    File size : 1.45 GiB
    Duration : 1h 28mn
    Overall bit rate : 2 342 Kbps
    Video
    ID : 0
    Format : MPEG-4 Visual
    Format profile : Advanced Simple@L5
    Format settings, BVOP : 2
    Format settings, QPel : No
    Format settings, GMC : No warppoints
    Format settings, Matrix : Default (H.263)
    Codec ID : XVID
    Codec ID/Hint : XviD
    Duration : 1h 28mn
    Bit rate : 1 785 Kbps
    Width : 720 pixels
    Height : 304 pixels
    Display aspect ratio : 2.35:1
    Frame rate : 23.976 fps
    Color space : YUV
    Chroma subsampling : 4:2:0
    Bit depth : 8 bits
    Scan type : Progressive
    Compression mode : Lossy
    Bits/(Pixel*Frame) : 0.340
    Stream size : 1.10 GiB (76%)
    Writing library : XviD 66
    Audio #1
    ID : 1
    Format : AC-3
    Format/Info : Audio Coding 3
    Mode extension : CM (complete main)
    Format settings, Endianness : Big
    Codec ID : 2000
    Duration : 1h 28mn
    Source duration : 1h 28mn
    Bit rate mode : Constant
    Bit rate : 160 Kbps
    Channel(s) : 2 channels
    Channel positions : Front: L R
    Sampling rate : 48.0 KHz
    Bit depth : 16 bits
    Compression mode : Lossy
    Stream size : 101 MiB (7%)
    Alignment : Aligned on interleaves
    Interleave, duration : 42 ms (1.00 video frame)
    Audio #2
    ID : 2
    Format : AC-3
    Format/Info : Audio Coding 3
    Mode extension : CM (complete main)
    Format settings, Endianness : Big
    Codec ID : 2000
    Duration : 1h 28mn
    Source duration : 1h 28mn
    Bit rate mode : Constant
    Bit rate : 384 Kbps
    Channel(s) : 6 channels
    Channel positions : Front: L C R, Side: L R, LFE
    Sampling rate : 48.0 KHz
    Bit depth : 16 bits
    Compression mode : Lossy
    Stream size : 243 MiB (16%)
    Alignment : Aligned on interleaves
    Interleave, duration : 42 ms (1.00 video frame)

    Скриншот c названием фильма

    Скриншоты

    Скачать .torrent

    Скачать торрент-файл бесплатно и на максимальной скорости!

    Как скачивать? · Что такое торрент? · Рейтинг и ограничения

    !ВНИМАНИЕ!
    Сайт не распространяет и не хранит электронные версии произведений, а занимается лишь лишь предоставлением доступа к создаваемому пользователями каталогу ссылок на торрент-файлы, которые содержат только списки хеш-сумм, убедительная просьба с жалобами обращаться напрямую к пользователю. Файлы для обмена на трекере предоставлены пользователями сайта, и администрация не несёт ответственности за их содержание. Просьба не заливать файлы, защищенные авторскими правами, а также файлы нелегального содержания!


    _________________
    [Профиль] [ЛС]
    Показать сообщения:    
    Ответить на тему

    Текущее время: Сегодня, в 19:36

    Часовой пояс: GMT + 2



    Вы не можете начинать темы
    Вы не можете отвечать на сообщения
    Вы не можете редактировать свои сообщения
    Вы не можете удалять свои сообщения
    Вы не можете голосовать в опросах
    Вы не можете прикреплять файлы к сообщениям
    Вы не можете скачивать файлы