BitTorrentTracker PerecTracker.org
BitTorrentTracker PerecTracker.org
    
Регистрация  ·  Вход
 
 · 
Забыли пароль?

  • Из машины / Ex Machina (Алекс Гарленд / Alex Garland) [2015 г., Великобритания, фантастика, драма, BDRip-AVC] Dub + Sub (Rus, Ukr, Eng)

    Ответить на тему
     
    Автор Сообщение

    rechyn

    Создавать темы 22-Май-2015 23:54

           

    [Цитировать]

    -Из машины / Ex Machina--Год выпуска: 2015Страна: ВеликобританияЖанр: фантастика, драма-Продолжительность: 01:48:00Перевод: Профессиональный (дублированный) [лицензия]Субтитры: (русские, украинские, английские)--Режиссер:Том Элкинс / Tom Elkins-В ролях:Донал Глисон, Кори Джонсон, Оскар Айзек, Алисия Викандер, Соноя Мизуно, Симара А. Темплмен, Тиффани Писани, Элина Алминас-Описание:
    В центре сюжета - молодой человек, которого нанимает миллиардер, сделавший состояние на высокотехнологичных разработках. Задача работника - провести неделю в удаленном местечке, тестируя женщину-робота с искусственным интеллектом.
    --Дополнительная информация:--Сэмпл Рип НЕ совместим с бытовыми DVD-проигрывателями.--Качество видео: BDRip-AVC (Исходник: Blu-ray Disc 1080p )
    Формат видео: MKV
    Видео: AVC (x264), 1040x436 (2.39:1), 23.976 fps, ~1488 kbps avg, 0.137 bit/pixel
    Аудио: 48 kHz, AC3 Dolby Digital, 3/2 (L,C,R,l,r) + LFE ch, 448 kbps (Dub)
    Главы: есть-

    Скриншоты



    Название

    MediaInfo/log

    log

    x264 [info]: frame I:1114 Avg QP:14.81 size: 59339
    x264 [info]: frame P:25640 Avg QP:17.25 size: 18142
    x264 [info]: frame B:128632 Avg QP:17.68 size: 5238
    x264 [info]: consecutive B-frames: 1.1% 0.6% 2.0% 6.4% 11.4% 50.4% 7.0% 2.2% 3.6% 1.4% 3.3% 3.2% 2.9% 2.2% 1.2% 0.3% 0.7%
    x264 [info]: mb I I16..4: 4.9% 80.4% 14.8%
    x264 [info]: mb P I16..4: 0.5% 3.9% 0.9% P16..4: 33.4% 39.0% 15.6% 0.0% 0.0% skip: 6.7%
    x264 [info]: mb B I16..4: 0.0% 0.2% 0.1% B16..8: 32.2% 19.9% 3.8% direct: 3.3% skip:40.5% L0:49.9% L1:41.9% BI: 8.2%
    x264 [info]: 8x8 transform intra:75.0% inter:55.5%
    x264 [info]: direct mvs spatial:97.5% temporal:2.5%
    x264 [info]: coded y,uvDC,uvAC intra: 84.5% 82.5% 70.3% inter: 15.8% 21.1% 13.7%
    x264 [info]: i16 v,h,dc,p: 25% 27% 7% 41%
    x264 [info]: i8 v,h,dc,ddl,ddr,vr,hd,vl,hu: 12% 8% 8% 9% 13% 13% 12% 12% 13%
    x264 [info]: i4 v,h,dc,ddl,ddr,vr,hd,vl,hu: 30% 11% 9% 6% 10% 9% 9% 7% 9%
    x264 [info]: i8c dc,h,v,p: 46% 22% 17% 15%
    x264 [info]: Weighted P-Frames: Y:3.5% UV:1.9%
    x264 [info]: ref P L0: 43.7% 8.7% 16.7% 8.7% 6.9% 5.5% 4.9% 2.9% 2.1% 0.1% 0.0%
    x264 [info]: ref B L0: 57.2% 17.8% 9.6% 5.8% 4.3% 3.2% 1.6% 0.5%
    x264 [info]: ref B L1: 89.1% 10.9%
    x264 [info]: kb/s:1487.54
    General
    Unique ID : 253868695374495582740856944776680821517 (0xBEFD550D72493D599A360A04E9FFD30D)
    Complete name : \Из машины\Ex_Machina_(2015).BDRip-AVC.ac3.Dub_[All.Films][RG].mkv
    Format : Matroska
    Format version : Version 4 / Version 2
    File size : 1.46 GiB
    Duration : 1h 48mn
    Overall bit rate : 1 938 Kbps
    Movie name : Из машины / Ex Machina (2015) BDRip-AVC | <VIRUS> [All.Films][RG][perectracker.org]
    Encoded date : UTC 2015-05-22 13:51:20
    Writing application : mkvmerge v7.5.0 ('Glass Culture') 32bit built on Jan 10 2015 09:41:31
    Writing library : libebml v1.3.1 + libmatroska v1.4.2
    _STATISTICS_WRITING_APP : mkvmerge v7.5.0 ('Glass Culture') 32bit built on Jan 10 2015 09:41:31
    _STATISTICS_WRITING_DATE_UT : 2015-05-22 13:51:20
    _STATISTICS_TAGS : BPS DURATION NUMBER_OF_FRAMES NUMBER_OF_BYTES
    DURATION : 01:38:41.540000000
    NUMBER_OF_FRAMES : 1249
    NUMBER_OF_BYTES : 39699
    Video
    ID : 1
    Format : AVC
    Format/Info : Advanced Video Codec
    Format profile : High@L4.1
    Format settings, CABAC : Yes
    Format settings, ReFrames : 9 frames
    Codec ID : V_MPEG4/ISO/AVC
    Duration : 1h 48mn
    Bit rate : 1 488 Kbps
    Width : 1 040 pixels
    Height : 436 pixels
    Display aspect ratio : 2.40:1
    Frame rate mode : Constant
    Frame rate : 23.976 fps
    Color space : YUV
    Chroma subsampling : 4:2:0
    Bit depth : 8 bits
    Scan type : Progressive
    Bits/(Pixel*Frame) : 0.137
    Stream size : 1.09 GiB (75%)
    Writing library : x264 core 144 r2525 40bb568
    Encoding settings : cabac=1 / ref=9 / deblock=1:-2:-2 / analyse=0x3:0x113 / me=umh / subme=11 / psy=1 / psy_rd=1.03:0.00 / mixed_ref=1 / me_range=42 / chroma_me=1 / trellis=2 / 8x8dct=1 / cqm=0 / deadzone=21,11 / fast_pskip=0 / chroma_qp_offset=-2 / threads=6 / lookahead_threads=1 / sliced_threads=0 / nr=0 / decimate=0 / interlaced=0 / bluray_compat=0 / constrained_intra=0 / bframes=16 / b_pyramid=2 / b_adapt=2 / b_bias=0 / direct=3 / weightb=1 / open_gop=0 / weightp=2 / keyint=240 / keyint_min=23 / scenecut=40 / intra_refresh=0 / rc_lookahead=60 / rc=2pass / mbtree=0 / bitrate=1488 / ratetol=1.0 / qcomp=0.60 / qpmin=10 / qpmax=51 / qpstep=4 / cplxblur=20.0 / qblur=0.5 / vbv_maxrate=50000 / vbv_bufsize=62500 / nal_hrd=none / filler=0 / ip_ratio=1.40 / pb_ratio=1.30 / aq=3:1.00 / zones=150000,155386,q=35
    Default : Yes
    Forced : No
    Audio
    ID : 2
    Format : AC-3
    Format/Info : Audio Coding 3
    Mode extension : CM (complete main)
    Format settings, Endianness : Big
    Codec ID : A_AC3
    Duration : 1h 48mn
    Bit rate mode : Constant
    Bit rate : 448 Kbps
    Channel(s) : 6 channels
    Channel positions : Front: L C R, Side: L R, LFE
    Sampling rate : 48.0 KHz
    Bit depth : 16 bits
    Compression mode : Lossy
    Stream size : 346 MiB (23%)
    Title : Дубляж
    Language : Russian
    Default : Yes
    Forced : No
    Text #1
    ID : 3
    Format : UTF-8
    Codec ID : S_TEXT/UTF8
    Codec ID/Info : UTF-8 Plain Text
    Title : BD
    Language : Russian
    Default : No
    Forced : No
    Text #2
    ID : 4
    Format : UTF-8
    Codec ID : S_TEXT/UTF8
    Codec ID/Info : UTF-8 Plain Text
    Title : MartinaG
    Language : Russian
    Default : No
    Forced : No
    Text #3
    ID : 5
    Format : UTF-8
    Codec ID : S_TEXT/UTF8
    Codec ID/Info : UTF-8 Plain Text
    Language : Ukrainian
    Default : No
    Forced : No
    Text #4
    ID : 6
    Format : UTF-8
    Codec ID : S_TEXT/UTF8
    Codec ID/Info : UTF-8 Plain Text
    Language : English
    Default : No
    Forced : No
    Text #5
    ID : 7
    Format : UTF-8
    Codec ID : S_TEXT/UTF8
    Codec ID/Info : UTF-8 Plain Text
    Title : SDH
    Language : English
    Default : No
    Forced : No
    Text #6
    ID : 8
    Format : UTF-8
    Codec ID : S_TEXT/UTF8
    Codec ID/Info : UTF-8 Plain Text
    Title : SDH Colored
    Language : English
    Default : No
    Forced : No
    Menu
    00:00:00.000 : en:(01)00:00:00:000
    00:04:34.940 : en:(02)00:04:34:940
    00:11:16.634 : en:(03)00:11:16:634
    00:15:08.157 : en:(04)00:15:08:157
    00:23:38.750 : en:(05)00:23:38:750
    00:31:57.999 : en:(06)00:31:57:999
    00:36:05.163 : en:(07)00:36:05:163
    00:40:26.757 : en:(08)00:40:26:757
    00:45:56.378 : en:(09)00:45:56:378
    00:53:28.954 : en:(10)00:53:28:954
    01:00:26.079 : en:(11)01:00:26:079
    01:04:01.253 : en:(12)01:04:01:253
    01:07:19.076 : en:(13)01:07:19:076
    01:13:22.021 : en:(14)01:13:22:021
    01:16:56.110 : en:(15)01:16:56:110
    01:21:36.515 : en:(16)01:21:36:515
    01:27:36.832 : en:(17)01:27:36:832
    01:32:54.149 : en:(18)01:32:54:149
    01:38:51.006 : en:(19)01:38:51:006
    01:42:26.931 : en:(20)01:42:26:931
    01:48:00.640 : en:(21)01:48:00:640
    Скачать .torrent

    Скачать торрент-файл бесплатно и на максимальной скорости!

    Как скачивать? · Что такое торрент? · Рейтинг и ограничения

    !ВНИМАНИЕ!
    Сайт не распространяет и не хранит электронные версии произведений, а занимается лишь лишь предоставлением доступа к создаваемому пользователями каталогу ссылок на торрент-файлы, которые содержат только списки хеш-сумм, убедительная просьба с жалобами обращаться напрямую к пользователю. Файлы для обмена на трекере предоставлены пользователями сайта, и администрация не несёт ответственности за их содержание. Просьба не заливать файлы, защищенные авторскими правами, а также файлы нелегального содержания!


    _________________
    [Профиль] [ЛС]
    Показать сообщения:    
    Ответить на тему

    Текущее время: Сегодня, в 08:47

    Часовой пояс: GMT + 2



    Вы не можете начинать темы
    Вы не можете отвечать на сообщения
    Вы не можете редактировать свои сообщения
    Вы не можете удалять свои сообщения
    Вы не можете голосовать в опросах
    Вы не можете прикреплять файлы к сообщениям
    Вы не можете скачивать файлы