BitTorrentTracker PerecTracker.org
BitTorrentTracker PerecTracker.org
    
Регистрация  ·  Вход
 
 · 
Забыли пароль?

  • Холод в июле / Cold in July (Джим Микл / Jim Mickle) [2014, США, Франция, триллер, криминал, драма, BDRip-AVC] Dub (R5) + Sub Rus + Original Eng

    Ответить на тему
     
    Автор Сообщение

    Light

    Создавать темы 22-Май-2015 23:54

           

    [Цитировать]

    Холод в июле / Cold in July
    Страна: США, Франция
    Жанр: триллер, криминал, драма
    Год выпуска: 2014
    Продолжительность: 1:50:02
    Перевод: Профессиональный (дублированный) R5
    Cубтитры: русские
    Оригинальная аудиодорожка: английский
    Режиссер: Джим Микл / Jim Mickle
    В ролях: Майкл С. Холл, Дон Джонсон, Сэм Шепард, Винесса Шоу, Уайатт Расселл, Билл Сейдж, Ник Дамичи, Лэнни Флаэрти, Кристин Гриффит, Хэппи Андерсон
    Описание: Ричард Дэйн, тихий и безобидный мужчина, случайно застрелил забравшегося в его дом грабителя. Полиция опознала в убитом давно находящегося в розыске преступника, труп забрали и быстро похоронили. Однако вскоре появляется отец погибшего, Бен Рассел, живущий по принципу «око за око». И теперь Дэйну приходится защищать себя и своего ребенка. А вскоре в полицейском участке на доске с фотографиями разыскиваемых преступников он видит знакомую фамилию Рассел, но абсолютно незнакомое лицо. Полицейские подставили его или произошла трагическая ошибка? Вместе с Беном и его другом, частным детективом Джимом, он начинает нешуточное сражение за торжество справедливости.

    Сэмпл: http://sendfile.su/1120613
    Качество видео: BDRip-AVC [Blu-ray Disc [USA Transfer] -BLUEBIRD]
    Формат видео: MKV
    Видео: AVC, 1152 x 480 (2,40:1), 2969 kbps, 23,976 fps, 0.224 bpp
    Аудио: AC3, 6ch, 48 kHz, 384 kbps, 16 bit
    Аудио 2: AC3, 6ch, 48 kHz, 448 kbps, 16 bit
    Формат субтитров: softsub (SRT)

    MediaInfo

    Уникальный идентификатор : 184671139869246692886503871613667322141 (0x8AEE5E290C15549B8E0185323BA3291D)
    Полное имя : F:\Films\Holod\Cold.mkv
    Формат : Matroska
    Версия формата : Version 4 / Version 2
    Размер файла : 2,92 Гбайт
    Продолжительность : 1 ч. 50 м.
    Общий поток : 3801 Кбит/сек
    Дата кодирования : UTC 2015-05-22 11:50:08
    Программа кодирования : mkvmerge v7.7.0 ('Six Voices') 64bit built on Feb 28 2015 23:39:33
    Библиотека кодирования : libebml v1.3.1 + libmatroska v1.4.2
    _STATISTICS_WRITING_APP : mkvmerge v7.7.0 ('Six Voices') 64bit built on Feb 28 2015 23:39:33
    _STATISTICS_WRITING_DATE_UTC : 2015-05-22 11:50:08
    _STATISTICS_TAGS : BPS DURATION NUMBER_OF_FRAMES NUMBER_OF_BYTES
    DURATION : 01:40:51.920000000
    NUMBER_OF_FRAMES : 851
    NUMBER_OF_BYTES : 32036
    Видео
    Идентификатор : 1
    Формат : AVC
    Формат/Информация : Advanced Video Codec
    Профиль формата : High@L4.1
    Параметр CABAC формата : Да
    Параметр ReFrames формата : 8 кадров
    Идентификатор кодека : V_MPEG4/ISO/AVC
    Продолжительность : 1 ч. 50 м.
    Битрейт : 2969 Кбит/сек
    Ширина : 1152 пикселя
    Высота : 480 пикселей
    Соотношение сторон : 2,40:1
    Режим частоты кадров : Постоянный
    Частота кадров : 23,976 кадра/сек
    Цветовое пространство : YUV
    Субдискретизация насыщенности : 4:2:0
    Битовая глубина : 8 бит
    Тип развёртки : Прогрессивная
    Бит/(Пиксели*Кадры) : 0.224
    Размер потока : 2,22 Гбайт (76%)
    Библиотека кодирования : x264 core 142 r2431 ac76440
    Настройки программы : cabac=1 / ref=8 / deblock=1:-2:-1 / analyse=0x3:0x133 / me=umh / subme=9 / psy=1 / psy_rd=1.00:0.05 / mixed_ref=0 / me_range=36 / chroma_me=1 / trellis=2 / 8x8dct=1 / cqm=0 / deadzone=21,11 / fast_pskip=0 / chroma_qp_offset=-3 / threads=4 / lookahead_threads=1 / sliced_threads=0 / nr=0 / decimate=0 / interlaced=0 / bluray_compat=0 / constrained_intra=0 / bframes=12 / b_pyramid=2 / b_adapt=2 / b_bias=0 / direct=1 / weightb=1 / open_gop=0 / weightp=2 / keyint=240 / keyint_min=23 / scenecut=40 / intra_refresh=0 / rc=2pass / mbtree=0 / bitrate=2969 / ratetol=1.0 / qcomp=0.60 / qpmin=10 / qpmax=69 / qpstep=4 / cplxblur=20.0 / qblur=0.5 / ip_ratio=1.40 / pb_ratio=1.30 / aq=1:1.00
    Default : Да
    Forced : Нет
    Аудио #1
    Идентификатор : 2
    Формат : AC-3
    Формат/Информация : Audio Coding 3
    Расширение режима : CM (complete main)
    Параметр Endianness формата : Big
    Идентификатор кодека : A_AC3
    Продолжительность : 1 ч. 50 м.
    Вид битрейта : Постоянный
    Битрейт : 384 Кбит/сек
    Каналы : 6 каналов
    Расположение каналов : Front: L C R, Side: L R, LFE
    Частота : 48,0 КГц
    Битовая глубина : 16 бит
    Метод сжатия : С потерями
    Размер потока : 302 Мбайт (10%)
    Заголовок : Русский дублированный
    Язык : Russian
    Default : Да
    Forced : Нет
    Аудио #2
    Идентификатор : 3
    Формат : AC-3
    Формат/Информация : Audio Coding 3
    Расширение режима : CM (complete main)
    Параметр Endianness формата : Big
    Идентификатор кодека : A_AC3
    Продолжительность : 1 ч. 50 м.
    Вид битрейта : Постоянный
    Битрейт : 448 Кбит/сек
    Каналы : 6 каналов
    Расположение каналов : Front: L C R, Side: L R, LFE
    Частота : 48,0 КГц
    Битовая глубина : 16 бит
    Метод сжатия : С потерями
    Размер потока : 353 Мбайт (12%)
    Заголовок : Английский
    Язык : English
    Default : Нет
    Forced : Нет
    Текст
    Идентификатор : 4
    Формат : UTF-8
    Идентификатор кодека : S_TEXT/UTF8
    Идентификатор кодека/Информация : UTF-8 Plain Text
    Заголовок : Русские
    Язык : Russian
    Default : Нет
    Forced : Нет
    Меню
    00:00:00.000 : en:00:00:00.000
    00:07:02.881 : en:00:07:02.881
    00:17:19.372 : en:00:17:19.372
    00:26:53.737 : en:00:26:53.737
    00:37:13.731 : en:00:37:13.731
    00:44:20.950 : en:00:44:20.950
    00:55:18.398 : en:00:55:18.398
    01:04:46.091 : en:01:04:46.091
    01:12:50.449 : en:01:12:50.449
    01:22:56.555 : en:01:22:56.555
    01:34:49.183 : en:01:34:49.183
    01:45:44.505 : en:01:45:44.505

    Скриншот c названием фильма

    Скриншоты

    Возраст

    16+ - зрителям, достигшим 16 лет

    Рейтинг МРАА

    R - лицам до 17 лет обязательно присутствие взрослого
    Скачать .torrent

    Скачать торрент-файл бесплатно и на максимальной скорости!

    Как скачивать? · Что такое торрент? · Рейтинг и ограничения

    !ВНИМАНИЕ!
    Сайт не распространяет и не хранит электронные версии произведений, а занимается лишь лишь предоставлением доступа к создаваемому пользователями каталогу ссылок на торрент-файлы, которые содержат только списки хеш-сумм, убедительная просьба с жалобами обращаться напрямую к пользователю. Файлы для обмена на трекере предоставлены пользователями сайта, и администрация не несёт ответственности за их содержание. Просьба не заливать файлы, защищенные авторскими правами, а также файлы нелегального содержания!


    _________________
    [Профиль] [ЛС]
    Показать сообщения:    
    Ответить на тему

    Текущее время: Сегодня, в 00:29

    Часовой пояс: GMT + 2



    Вы не можете начинать темы
    Вы не можете отвечать на сообщения
    Вы не можете редактировать свои сообщения
    Вы не можете удалять свои сообщения
    Вы не можете голосовать в опросах
    Вы не можете прикреплять файлы к сообщениям
    Вы не можете скачивать файлы