BitTorrentTracker PerecTracker.org
BitTorrentTracker PerecTracker.org
    
Регистрация  ·  Вход
 
 · 
Забыли пароль?

  • Гнездо Дракона / Dragon Nest: Warriors\' Dawn (Юэфэн Сонг / Yuefeng Song) [2014, Мультфильм, фэнтези, приключения, семейный, HDRip] Dub

    Ответить на тему
     
    Автор Сообщение

    rechyn

    Создавать темы 22-Май-2015 19:42

           

    [Цитировать]

    Гнездо Дракона / Dragon Nest: Warriors' Dawn
    Страна: США, Китай, Франция
    Жанр: Мультфильм, фэнтези, приключения, семейный
    Продолжительность: 01:30:02
    Год выпуска: 2014
    Перевод: Профессиональный (дублированный)
    Русские субтитры: нет
    Режиссёр: Юэфэн Сонг / Yuefeng Song
    Роли озвучивали: Блайт Оффарт, Бьянка Коллинз, Саймон Джэглом
    Описание: Кто бы мог подумать, что всегда неуклюжий, но несомненно талантливый парень станет великим героем, который спасет свою красивейшую планету от пробудившегося зла? Много лет, пока легендарный Черный дракон спал, земля Алтера хранила хрупкий мир между расами людей, эльфов и неведомых нашему миру животных. Когда же он пробудился, охваченные ужасом жители были вынуждены бежать сквозь остров в попытке найти спасение… Наш герой Ламберт в компании своих пушистых компаньонов отправляется в путь полный веселых развлечений и приключений, встречая настоящих друзей и любовь в лице прекрасной эльфийской девочки. Объединившись, они находят тайную дорогу к пещере дракона, а юный воин выполняет возложенную на него важнейшую миссию: он входит в доверие к Черному Дракону, чтобы с честью и юмором выйти победителем.

    Семпл: http://multi-up.com/1049804
    Качество: HDRip
    Формат: AVI
    Видео: 720x384 (1,85:1), 24 fps, XviD ~1717 kbps avg, 0.259 bit/pixel
    Аудио: 48 kHz, AC3, 6 ch, ~448.00 kbps avg
    Субтитры: Отсутствуют

    Подробные технические данные

    ОбщееПолное имя : C:\Users\343\Downloads\Гнездо дракона .2014.D.HDRip.1400Mb.aviФормат : AVIФормат/Информация : Audio Video InterleaveРазмер файла : 1,37 ГбайтПродолжительность : 1 ч. 30 м.Общий поток : 2174 Кбит/секПрограмма кодирования : VirtualDubMod 1.5.10.2 (build 2540/release)Библиотека кодирования : VirtualDubMod build 2540/release
    ВидеоИдентификатор : 0Формат : MPEG-4 VisualПрофиль формата : Advanced Simple@L5Параметр BVOP формата : 2Параметр QPel формата : НетПараметр GMC формата : Без точки переходаПараметр матрицы формата : Default (MPEG)Идентификатор кодека : XVIDИдентификатор кодека/Подсказка : XviDПродолжительность : 1 ч. 30 м.Битрейт : 1717 Кбит/секШирина : 720 пикселейВысота : 384 пикселяСоотношение сторон : 1,85:1Частота кадров : 24,000 кадра/секЦветовое пространство : YUVСубдискретизация насыщенности : 4:2:0Битовая глубина : 8 битТип развёртки : ПрогрессивнаяМетод сжатия : С потерямиБит/(Пиксели*Кадры) : 0.259Размер потока : 1,08 Гбайт (79%)Библиотека кодирования : XviD 1.2.1 (UTC 2008-12-04)
    АудиоИдентификатор : 1Формат : AC-3Формат/Информация : Audio Coding 3Расширение режима : CM (complete main)Параметр Endianness формата : BigИдентификатор кодека : 2000Продолжительность : 1 ч. 30 м.Вид битрейта : ПостоянныйБитрейт : 448 Кбит/секКаналы : 6 каналовРасположение каналов : Front: L C R, Side: L R, LFEЧастота : 48,0 КГцБитовая глубина : 16 битМетод сжатия : С потерямиРазмер потока : 288 Мбайт (21%)Выравнивание : Разделение по промежуткамПродолжительность промежутка : 42 мс. (1,00 видеокадр)Время предзагрузки промежутка : 500 мс.

    Скриншоты


    Скачать .torrent

    Скачать торрент-файл бесплатно и на максимальной скорости!

    Как скачивать? · Что такое торрент? · Рейтинг и ограничения

    !ВНИМАНИЕ!
    Сайт не распространяет и не хранит электронные версии произведений, а занимается лишь лишь предоставлением доступа к создаваемому пользователями каталогу ссылок на торрент-файлы, которые содержат только списки хеш-сумм, убедительная просьба с жалобами обращаться напрямую к пользователю. Файлы для обмена на трекере предоставлены пользователями сайта, и администрация не несёт ответственности за их содержание. Просьба не заливать файлы, защищенные авторскими правами, а также файлы нелегального содержания!


    _________________
    [Профиль] [ЛС]
    Показать сообщения:    
    Ответить на тему

    Текущее время: Сегодня, в 18:46

    Часовой пояс: GMT + 2



    Вы не можете начинать темы
    Вы не можете отвечать на сообщения
    Вы не можете редактировать свои сообщения
    Вы не можете удалять свои сообщения
    Вы не можете голосовать в опросах
    Вы не можете прикреплять файлы к сообщениям
    Вы не можете скачивать файлы