BitTorrentTracker PerecTracker.org
BitTorrentTracker PerecTracker.org
    
Регистрация  ·  Вход
 
 · 
Забыли пароль?

  • Добро пожаловать ко мне / Welcome to me (Шайра Пивен / Shira Piven) [2014, США, комедия, драма, DVDScreener] VO (А. Глинский) + Original Eng

    Ответить на тему
     
    Автор Сообщение

    Light

    Создавать темы 22-Май-2015 15:30

           

    [Цитировать]

    Добро пожаловать ко мне / Welcome to me
    Страна: США
    Жанр: комедия, драма
    Год выпуска: 2014
    Продолжительность: 01:27
    Перевод: Одноголосый закадровый (автор А. Глинский)
    Cубтитры: нет
    Оригинальная аудиодорожка: английский
    Режиссер: Шайра Пивен / Shira Piven
    В ролях: Кристен Уиг, Уэс Бентли, Линда Карделлини, Джоан Кьюсак, Джеймс Мардсен, Тим Роббинс
    Описание: Элис Клиг, страдающая психическим расстройством, выигрывает 86 миллионов долларов. На эти деньги она делает собственное шоу на местном канале. Берегитесь, люди - для Элис шоу становится своеобразной психотерапией в прямом эфире, хотите вы этого или нет.
    Доп. информация: Фильм специфический, но сделанный добротно. Особенно интересен для поклонников Кристен Уиг - постоянной участницы шоу SNL - и любителей цензурированной сатиры на американское ТВ.
    Сэмпл: http://www.mediafire.com/watch/ilf0si3zrxwzgzf/Welc..._me_sample_1.avi
    Качество видео: DVDScreener
    Формат видео: AVI
    Видео: XviD MPEG-4, 720x400, 16:9, 23.976 fps, 1 848 Kbps
    Аудио: MP3, 44.1kHz, 128 kbps, 2 channels, перевод
    Аудио 2: AC3, 48 kHz, 384 kbps, Front: L R, английский

    MediaInfo

    Complete name : F:\Welcome to me\Welcome to Me.avi
    Format : AVI
    Format/Info : Audio Video Interleave
    File size : 1.44 GiB
    Duration : 1h 27mn
    Overall bit rate : 2 374 Kbps
    Writing application : VirtualDubMod 1.5.10.2 (build 2542/release)
    Writing library : VirtualDubMod build 2542/release
    Video
    ID : 0
    Format : MPEG-4 Visual
    Format profile : Advanced Simple@L5
    Format settings, BVOP : 2
    Format settings, QPel : No
    Format settings, GMC : No warppoints
    Format settings, Matrix : Default (H.263)
    Muxing mode : Packed bitstream
    Codec ID : XVID
    Codec ID/Hint : XviD
    Duration : 1h 27mn
    Bit rate : 1 848 Kbps
    Width : 720 pixels
    Height : 400 pixels
    Display aspect ratio : 16:9
    Frame rate : 23.976 fps
    Color space : YUV
    Chroma subsampling : 4:2:0
    Bit depth : 8 bits
    Scan type : Progressive
    Compression mode : Lossy
    Bits/(Pixel*Frame) : 0.268
    Stream size : 1.12 GiB (78%)
    Writing library : XviD 66
    Audio #1
    ID : 1
    Format : MPEG Audio
    Format version : Version 1
    Format profile : Layer 3
    Codec ID : 55
    Codec ID/Hint : MP3
    Duration : 1h 27mn
    Bit rate mode : Constant
    Bit rate : 128 Kbps
    Channel(s) : 2 channels
    Sampling rate : 44.1 KHz
    Compression mode : Lossy
    Stream size : 79.8 MiB (5%)
    Alignment : Split accross interleaves
    Interleave, duration : 42 ms (1.00 video frame)
    Interleave, preload duration : 500 ms
    Audio #2
    ID : 2
    Format : AC-3
    Format/Info : Audio Coding 3
    Mode extension : CM (complete main)
    Format settings, Endianness : Big
    Codec ID : 2000
    Duration : 1h 27mn
    Bit rate mode : Constant
    Bit rate : 384 Kbps
    Channel(s) : 2 channels
    Channel positions : Front: L R
    Sampling rate : 48.0 KHz
    Bit depth : 16 bits
    Compression mode : Lossy
    Stream size : 239 MiB (16%)
    Alignment : Split accross interleaves
    Interleave, duration : 42 ms (1.00 video frame)
    Interleave, preload duration : 500 ms

    Скриншот c названием фильма

    Скриншоты






    Скачать .torrent

    Скачать торрент-файл бесплатно и на максимальной скорости!

    Как скачивать? · Что такое торрент? · Рейтинг и ограничения

    !ВНИМАНИЕ!
    Сайт не распространяет и не хранит электронные версии произведений, а занимается лишь лишь предоставлением доступа к создаваемому пользователями каталогу ссылок на торрент-файлы, которые содержат только списки хеш-сумм, убедительная просьба с жалобами обращаться напрямую к пользователю. Файлы для обмена на трекере предоставлены пользователями сайта, и администрация не несёт ответственности за их содержание. Просьба не заливать файлы, защищенные авторскими правами, а также файлы нелегального содержания!


    _________________
    [Профиль] [ЛС]
    Показать сообщения:    
    Ответить на тему

    Текущее время: Сегодня, в 20:43

    Часовой пояс: GMT + 2



    Вы не можете начинать темы
    Вы не можете отвечать на сообщения
    Вы не можете редактировать свои сообщения
    Вы не можете удалять свои сообщения
    Вы не можете голосовать в опросах
    Вы не можете прикреплять файлы к сообщениям
    Вы не можете скачивать файлы