BitTorrentTracker PerecTracker.org
BitTorrentTracker PerecTracker.org
    
Регистрация  ·  Вход
 
 · 
Забыли пароль?

  • Эффи / Эффи Грей / Effie Gray (Ричард Лэкстон / Richard Laxton) [2014, Великобритания, Драма, HDRip] VO (Lenape)

    Ответить на тему
     
    Автор Сообщение

    Light

    Создавать темы 22-Май-2015 02:54

           

    [Цитировать]

    Эффи / Эффи Грей / Effie Gray-Страна: Великобритания
    Жанр: Драма
    Год выпуска: 2014
    Продолжительность: 01:48:25-Перевод: Одноголосый закадровый [Lenape]
    Cубтитры: нет-Режиссер: Ричард Лэкстон / Richard Laxton-В ролях: Дакота Фэннинг, Том Стёрридж, Эмма Томпсон, Джули Уолтерс, Клаудия Кардинале, Робби Колтрейн, Дэвид Суше, Дерек Джекоби, Рассел Тови, Джеймс Фокс-Описание: Фильм о непростых супружеских отношениях, о любовном треугольнике между британским поэтом, художником, критиком Джоном Рескином, его молодой женой Эффи и художником-прерафаэлитом, автором знаменитой «Офелии», Джоном Эвереттом Милле.-Благодарность: за перевод субтитров, по которым делалась озвучка спасибо victoria_vn, Irony, Alexdezh, Trident-Sample | IMDB | КиноПоиск-Тип релиза: HDRip [исх. BDRip 1080p]
    Формат видео: AVI-Видео: 720x304 (2.37:1), 24.000 fps, XviD build 50, 1541 kbps avg, 0.29 bit/pixel
    Аудио: 48 kHz, AC3 Dolby Digital, 3/2 (L,C,R,l,r) + LFE ch, 384.00 kbps avg [Russian_VO]-Релиз группы:
    -

    MediaInfo

    General
    Complete name : D:\Мои релизы\Effie Gray_HDRip_VO_Lenape_RG_All_Films.avi
    Format : AVI
    Format/Info : Audio Video Interleave
    File size : 1.47 GiB
    Duration : 1h 48mn
    Overall bit rate : 1 935 Kbps
    Writing application : VirtualDubMod 1.6.0.0 SURROUND (build 2560/release)
    Writing library : VirtualDubMod build 2560/release
    Video
    ID : 0
    Format : MPEG-4 Visual
    Format profile : Advanced Simple@L5
    Format settings, BVOP : Yes
    Format settings, QPel : No
    Format settings, GMC : No warppoints
    Format settings, Matrix : Custom
    Codec ID : XVID
    Codec ID/Hint : XviD
    Duration : 1h 48mn
    Bit rate : 1 541 Kbps
    Width : 720 pixels
    Height : 304 pixels
    Display aspect ratio : 2.35:1
    Frame rate : 24.000 fps
    Color space : YUV
    Chroma subsampling : 4:2:0
    Bit depth : 8 bits
    Scan type : Progressive
    Compression mode : Lossy
    Bits/(Pixel*Frame) : 0.293
    Stream size : 1.17 GiB (80%)
    Writing library : XviD 1.2.1 (UTC 2008-12-04)
    Audio
    ID : 1
    Format : AC-3
    Format/Info : Audio Coding 3
    Mode extension : CM (complete main)
    Codec ID : 2000
    Duration : 1h 48mn
    Bit rate mode : Constant
    Bit rate : 384 Kbps
    Channel(s) : 6 channels
    Channel positions : Front: L C R, Side: L R, LFE
    Sampling rate : 48.0 KHz
    Bit depth : 16 bits
    Compression mode : Lossy
    Stream size : 298 MiB (20%)
    Alignment : Split accross interleaves
    Interleave, duration : 42 ms (1.00 video frame)
    Interleave, preload duration : 500 ms

    Скриншоты

    Скачать .torrent

    Скачать торрент-файл бесплатно и на максимальной скорости!

    Как скачивать? · Что такое торрент? · Рейтинг и ограничения

    !ВНИМАНИЕ!
    Сайт не распространяет и не хранит электронные версии произведений, а занимается лишь лишь предоставлением доступа к создаваемому пользователями каталогу ссылок на торрент-файлы, которые содержат только списки хеш-сумм, убедительная просьба с жалобами обращаться напрямую к пользователю. Файлы для обмена на трекере предоставлены пользователями сайта, и администрация не несёт ответственности за их содержание. Просьба не заливать файлы, защищенные авторскими правами, а также файлы нелегального содержания!


    _________________
    [Профиль] [ЛС]
    Показать сообщения:    
    Ответить на тему

    Текущее время: Сегодня, в 12:48

    Часовой пояс: GMT + 2



    Вы не можете начинать темы
    Вы не можете отвечать на сообщения
    Вы не можете редактировать свои сообщения
    Вы не можете удалять свои сообщения
    Вы не можете голосовать в опросах
    Вы не можете прикреплять файлы к сообщениям
    Вы не можете скачивать файлы