BitTorrentTracker PerecTracker.org
BitTorrentTracker PerecTracker.org
    
Регистрация  ·  Вход
 
 · 
Забыли пароль?

  • Зимняя спячка / Winter Sleep (Нури Бильге Джейлан / Nuri Bilge Ceylan) [2014, Турция, Драма, HDRip] AVO (Юрий Сербин)

    Ответить на тему
     
    Автор Сообщение

    Light

    Создавать темы 21-Май-2015 10:06

           

    [Цитировать]

    Зимняя спячка / Winter Sleep (Kış Uykusu)
    Страна: Турция, Франция, Германия
    Студия: "Bredok Filmproduction", "Imaj", "Memento Films Production", "Zeynofilm"
    Жанр: Драма
    Год выпуска: 2014
    Продолжительность: 03:16:45
    Перевод: Авторский (одноголосый закадровый, Юрий Сербин)
    Cубтитры: нет
    Оригинальная аудиодорожка: нет
    Режиссер: Нури Бильге Джейлан / Nuri Bilge Ceylan
    В ролях: Халук Бильгинер, Мелиса Сёзен, Демет Акбаг, Айберк Пекджан, Серхат Кылыч, Неджат Ишлер, Тамер Левент, Надир Сарыбаджак, Эмирхан Доруктутан, Экрем Ильхан, Мехмет Али Нуроглу
    Описание: По мотивам рассказов А. Чехова. Главный герой киноленты Айдын в прошлом был неплохим актером, любил свою работу и зрителей. Однако теперь лучшие годы остались позади, он человек уже пенсионного возраста, у него осталась только супруга Нихал, которая намного его моложе, и гостиница, под названием "Отелло", которую они вместе содержат в Центральной Анатолии.
    Зимой, когда повсюду лежит снег и невозможно куда-либо выбраться, супруги, а с ними и присоединившаяся к ним сестра главного персонажа по имени Неджла вынуждены проводить все свое время в отеле. От тоски у них лишь накапливаются негативные эмоции, которые они, разумеется, выплескивают друг на друга. Айдын сожалеет о давно прошедшей славе и известности, Неджла все еще переживает свой развод, хотя с той поры миновало уже немало времени. Что же касается Нихал, то она все больше отдаляется от мужа, все чаще спрашивает себя, не был ли их брак и вовсе ошибкой, ведь она молода и могла еще найти себе мужа по любви, а не по расчету. Впрочем, такие вопросы задает себе и мужчина. Каждый из героев действительно жестоко страдает, и прийти на помощь близкому человеку никто из них не способен, поскольку все погружены в мир своих переживаний, каждому кажется, что нет человека более одинокого и несчастного, чем он сам. Неизвестно, к чему приведут героев этой турецкой драмы постоянные страдания и взаимные обвинения, смогут ли они когда-нибудь снова достигнуть взаимопонимания и тепла в отношениях.

    Доп. информация: Перевод и озвучка - Ю.Сербин

    Сэмпл: http://multi-up.com/1049495
    Качество видео: HDRip
    Формат видео: AVI
    Видео: MPEG-4 Visual, XviD, 720x304, 1 192 Kbps, 23.976 fps, Bits/(Pixel*Frame): 0.227
    Аудио: Audio Coding 3, АС3, 6 ch, 48.0 KHz, 384 Kbps - Русский

    MediaInfo

    General
    Complete name : F:\КИНО ТУРЦИИ\Z1mnYaYa.Sp1achk0.2015.P1.HDRip.2.18GB.avi
    Format : AVI
    Format/Info : Audio Video Interleave
    Format profile : OpenDML
    File size : 2.18 GiB
    Duration : 3h 16mn
    Overall bit rate : 1 588 Kbps
    Writing application : VirtualDubMod 1.5.10.2 (build 2540/release)
    Writing library : VirtualDubMod build 2540/release
    Video #0
    ID : 0
    Format : MPEG-4 Visual
    Format profile : Advanced Simple@L5
    Format settings, BVOP : 2
    Format settings, QPel : No
    Format settings, GMC : No warppoints
    Format settings, Matrix : Default (MPEG)
    Codec ID : XVID
    Codec ID/Hint : XviD
    Duration : 3h 16mn
    Bit rate : 1 192 Kbps
    Width : 720 pixels
    Height : 304 pixels
    Display aspect ratio : 2.35:1
    Frame rate : 23.976 fps
    Color space : YUV
    Chroma subsampling : 4:2:0
    Bit depth : 8 bits
    Scan type : Progressive
    Compression mode : Lossy
    Bits/(Pixel*Frame) : 0.227
    Stream size : 1.64 GiB (75%)
    Writing library : XviD 1.2.1 (UTC 2008-12-04)
    Audio #1
    ID : 1
    Format : AC-3
    Format/Info : Audio Coding 3
    Mode extension : CM (complete main)
    Format settings, Endianness : Big
    Codec ID : 2000
    Duration : 3h 16mn
    Bit rate mode : Constant
    Bit rate : 384 Kbps
    Channel(s) : 6 channels
    Channel positions : Front: L C R, Side: L R, LFE
    Sampling rate : 48.0 KHz
    Bit depth : 16 bits
    Compression mode : Lossy
    Stream size : 540 MiB (24%)
    Alignment : Split accross interleaves
    Interleave, duration : 42 ms (1.00 video frame)
    Interleave, preload duration : 500 ms

    Скриншот c названием фильма

    Скриншоты


    Скачать .torrent

    Скачать торрент-файл бесплатно и на максимальной скорости!

    Как скачивать? · Что такое торрент? · Рейтинг и ограничения

    !ВНИМАНИЕ!
    Сайт не распространяет и не хранит электронные версии произведений, а занимается лишь лишь предоставлением доступа к создаваемому пользователями каталогу ссылок на торрент-файлы, которые содержат только списки хеш-сумм, убедительная просьба с жалобами обращаться напрямую к пользователю. Файлы для обмена на трекере предоставлены пользователями сайта, и администрация не несёт ответственности за их содержание. Просьба не заливать файлы, защищенные авторскими правами, а также файлы нелегального содержания!


    _________________
    [Профиль] [ЛС]
    Показать сообщения:    
    Ответить на тему

    Текущее время: Сегодня, в 22:25

    Часовой пояс: GMT + 2



    Вы не можете начинать темы
    Вы не можете отвечать на сообщения
    Вы не можете редактировать свои сообщения
    Вы не можете удалять свои сообщения
    Вы не можете голосовать в опросах
    Вы не можете прикреплять файлы к сообщениям
    Вы не можете скачивать файлы