BitTorrentTracker PerecTracker.org
BitTorrentTracker PerecTracker.org
    
Регистрация  ·  Вход
 
 · 
Забыли пароль?

  • Герои полярного круга / Napapiirin sankarit / Lapland Odyssey (Доме Карукоски / Dome Karukoski) [2010, Швеция, Финляндия, Исландия, комедия, национальная трагедия, BDRip 1080p] MVO Культура - VO Андрей Лагута Sub eng + original fin

    Ответить на тему
     
    Автор Сообщение

    Flirldrerve

    Создавать темы 20-Май-2015 21:30

           

    [Цитировать]

    Герои полярного круга / Napapiirin sankarit / Lapland Odyssey

    Цитата: "Дигибокс - это зло"

    Страна: Швеция, Финляндия, Исландия
    Студия выпуска: Anagram Produktion, Helsinki Filmi Oy, Ripple World Pictures
    Жанр: скандинавский экшн, комедия, мелодрама, национальная трагедия
    Год выпуска: 2010 (15 October 2010 (Finland))
    Продолжительность: 1 ч. 35 м. 57 сек.
    Ratings: 7.0/10 from 1,132 users
    Перевод: Профессиональный (многоголосый закадровый) - Культура ("Нева Фильм" 2012г.), Любительский (одноголосый закадровый) - Андрей Лагута
    Cубтитры: английские, финские ,шведские
    Оригинальная аудиодорожка: финская
    Режиссер: Доме Карукоски / Dome Karukoski
    Сценарий: Pekko Pesonen
    Продюсер: Алекси Барди, Jonas Elmqvist, Olli Haikka
    Оператор: Пини Хелльстедт
    Композитор: Лэнс Хоган
    Художник: Пирьо Росси, Anna Vilppunen
    Монтаж: Харий Илонен
    В ролях:
    Памела Тола, Юсси Ватанен, Джаспер Пяккенен, Тимо Лавикайнен, Конста Мякеля, Синикка Моккила, Эркки Хетта, Кари Кетонен, Анна-Лина Хяркёнен, Камилла Якобсен, Джейн Тимглас
    Описание:
    Янне — человек из Лапландии, живущий на пособие. Его подружка Инари устала от непрактичности этого человека. Он даже не смог купить дигибокс, на который Инари дала деньги. И она ему поставила ультиматум: либо он к утру приносит домой этот дигибокс, либо она от него уходит. Так Янне со своими друзьями отправляется на поиски дигибокса. В пути они сталкиваются с неразрешимыми проблемами, препятствиями и искушениями. Одна из этих проблем — русские туристы.
    A comedy about Janne, a man from Lapland in Northern Finland, a man who has made a career out of living on welfare. Inari, his girlfriend, is tired of Janne's incapability of getting a grip on life. Janne wasn't even able to buy a digital TV box that Inari had given money for. Inari gives an ultimatum: a digital box needs to arrive by dawn or she leaves. Janne sets out into the night with his two friends to find a box. On their way to the city of Rovaniemi, Janne and his friends face many challenges, obstacles and temptations. They learn that they need to be daring. There's no room to give into bitterness. The most important thing isn't success, but rather the journey in itself.
    Jannelta (Jussi Vatanen) ei onnistu oikein mikään. Kun avovaimo Inari (Pamela Tola) lähettää miehen ostamaan halpaa digiboksia, nekin rahat tulee juotua Kapun (Jasper Pääkkönen) ja Räihäsen (Timo Lavikainen) kanssa. Inarin mitta tulee täyteen, ja hän uhkaa muuttaa siltä seisomalta etelään. Janne säikähtää ja lupaa hankkia Inarille aamuun mennessä digiboksin.
    Janne ystävineen heittäytyy mahdottomalta tuntuvaan seikkailuun. On hankittava rahaa bensaan ja digiboksiin sekä löydettävä kairan keskeltä kodinkoneliike, joka myisi kohtuuhintaisen perusboksin keskellä yötä. Yön aikana kaverukset joutuvat pistämään kaikkensa peliin yhden sähkölaitteen ja ennen kaikkea Jannen onnen eteen.
    Тип релиза: BDRip 1080p
    Контейнер: MKV
    Рип MCHD REPACK (Lapland.Odyssey.2010.REPACK.1080p.BluRay.x264-MCHD)
    Файл изменен 20.05.2015 добавлена русская дорожка - Профессиональный (многоголосый закадровый) - Культура ("Нева Фильм" 2012г.). Просьба перекачать торрент
    Видео: V_MPEG4 AVC x264, 9019 Кбит/сек, 1920x816, 2,35:1, 23,976 кадр/сек, NTSC
    Аудио 1: Russian, A_AC3, 2.0, 192.00 Кбит/сек, 48,0 КГц, MVO - Культура ("Нева Фильм" 2012г.)
    Аудио 2: Russian, A_AC3, 2.0, 192.00 Кбит/сек, 48,0 КГц, одноголосый закадровый - Андрей Лагута
    Аудио 2: Finish DTS 5.1 755 Кбит/сек, 48,0 КГц
    Формат субтитров:
    softsub (SRT)
    Festivals:
    TIFF, Canada, Screening on Contemporary World Cinema (2010)

    MediaInfo

    Общее
    Уникальный идентификатор : 207616474546476277180208234897361457881 (0x9C317A80CADE5359873D076D7081D2D9)
    Полное имя : C:\Napapiirin.Sankarit.2010.BluRay.1080p.MCHD.FIN.DTS.vs_U.mkv
    Формат : Matroska
    Размер файла : 6,81 Гбайт
    Продолжительность : 1 ч. 35 м.
    Общий поток : 10,2 Мбит/сек
    Дата кодирования : UTC 2015-05-20 15:08:55
    Программа кодирования : mkvmerge v2.1.0 ('Another Place To Fall') built on Aug 19 2007 13:40:07
    Библиотека кодирования : libebml v0.7.7 + libmatroska v0.8.1
    Видео
    Идентификатор : 1
    Формат : AVC
    Формат/Информация : Advanced Video Codec
    Профиль формата : High@L4.0
    Параметр CABAC формата : Да
    Параметр ReFrames формата : 5 кадры
    Параметры GOP формата : M=1, N=47
    Идентификатор кодека : V_MPEG4/ISO/AVC
    Продолжительность : 1 ч. 35 м.
    Битрейт : 9019 Кбит/сек
    Ширина : 1920 пикс.
    Высота : 816 пикс.
    Соотношение сторон : 2,35:1
    Частота кадров : 23,976 кадр/сек
    Цветовое пространство : YUV
    Подвыборка цветности : 4:2:0
    Битовая глубина : 8 бит
    Тип развёртки : Прогрессивная
    Бит/(Пиксели*Кадры) : 0.240
    Размер потока : 5,91 Гбайт (87%)
    Библиотека кодирования : x264 core 115 r1947 b5a8ad7
    Настройки программы : cabac=1 / ref=5 / deblock=1:0:0 / analyse=0x3:0x133 / me=umh / subme=7 / psy=1 / psy_rd=1.00:0.00 / mixed_ref=1 / me_range=16 / chroma_me=1 / trellis=1 / 8x8dct=1 / cqm=0 / deadzone=21,11 / fast_pskip=0 / chroma_qp_offset=-2 / threads=6 / sliced_threads=0 / nr=0 / decimate=1 / interlaced=0 / bluray_compat=0 / constrained_intra=0 / bframes=3 / b_pyramid=2 / b_adapt=2 / b_bias=0 / direct=3 / weightb=1 / open_gop=0 / weightp=2 / keyint=250 / keyint_min=23 / scenecut=40 / intra_refresh=0 / rc_lookahead=50 / rc=2pass / mbtree=1 / bitrate=9019 / ratetol=1.0 / qcomp=0.60 / qpmin=0 / qpmax=69 / qpstep=4 / cplxblur=20.0 / qblur=0.5 / ip_ratio=1.40 / aq=1:1.00
    Язык : Finnish
    Аудио #1
    Идентификатор : 2
    Формат : AC-3
    Формат/Информация : Audio Coding 3
    Расширение режима : CM (complete main)
    Идентификатор кодека : A_AC3
    Продолжительность : 1 ч. 35 м.
    Вид битрейта : Постоянный
    Битрейт : 192 Кбит/сек
    Канал(ы) : 2 канала(ов)
    Расположение каналов : Front: L R
    Частота : 48,0 КГц
    Битовая глубина : 16 бит
    Метод сжатия : С потерями
    Размер потока : 132 Мбайт (2%)
    Заголовок : ПМ
    Язык : Russian
    Аудио #2
    Идентификатор : 3
    Формат : AC-3
    Формат/Информация : Audio Coding 3
    Расширение режима : CM (complete main)
    Идентификатор кодека : A_AC3
    Продолжительность : 1 ч. 35 м.
    Вид битрейта : Постоянный
    Битрейт : 192 Кбит/сек
    Канал(ы) : 2 канала(ов)
    Расположение каналов : Front: L R
    Частота : 48,0 КГц
    Битовая глубина : 16 бит
    Метод сжатия : С потерями
    Размер потока : 132 Мбайт (2%)
    Заголовок : АП (Лагута)
    Язык : Russian
    Аудио #3
    Идентификатор : 4
    Формат : DTS
    Формат/Информация : Digital Theater Systems
    Идентификатор кодека : A_DTS
    Продолжительность : 1 ч. 35 м.
    Вид битрейта : Постоянный
    Битрейт : 755 Кбит/сек
    Канал(ы) : 6 канала(ов)
    Расположение каналов : Front: L C R, Side: L R, LFE
    Частота : 48,0 КГц
    Битовая глубина : 24 бит
    Метод сжатия : С потерями
    Размер потока : 518 Мбайт (7%)
    Язык : Finnish
    Текст #1
    Идентификатор : 5
    Формат : UTF-8
    Идентификатор кодека : S_TEXT/UTF8
    Идентификатор кодека/Информация : UTF-8 Plain Text
    Язык : English
    Текст #2
    Идентификатор : 6
    Формат : UTF-8
    Идентификатор кодека : S_TEXT/UTF8
    Идентификатор кодека/Информация : UTF-8 Plain Text
    Язык : Finnish
    Текст #3
    Идентификатор : 7
    Формат : UTF-8
    Идентификатор кодека : S_TEXT/UTF8
    Идентификатор кодека/Информация : UTF-8 Plain Text
    Язык
    "Скриншоты"
    Скачать .torrent

    Скачать торрент-файл бесплатно и на максимальной скорости!

    Как скачивать? · Что такое торрент? · Рейтинг и ограничения

    !ВНИМАНИЕ!
    Сайт не распространяет и не хранит электронные версии произведений, а занимается лишь лишь предоставлением доступа к создаваемому пользователями каталогу ссылок на торрент-файлы, которые содержат только списки хеш-сумм, убедительная просьба с жалобами обращаться напрямую к пользователю. Файлы для обмена на трекере предоставлены пользователями сайта, и администрация не несёт ответственности за их содержание. Просьба не заливать файлы, защищенные авторскими правами, а также файлы нелегального содержания!


    _________________
    [Профиль] [ЛС]

    Арнольд

    Создавать темы 11-Янв-2016 16:56 (спустя 7 месяцев 21 день)

           

    [Цитировать]

    Кстати вторая часть вышла в том году.
    [Профиль] [ЛС]
    Показать сообщения:    
    Ответить на тему

    Текущее время: Сегодня, в 14:36

    Часовой пояс: GMT + 2



    Вы не можете начинать темы
    Вы не можете отвечать на сообщения
    Вы не можете редактировать свои сообщения
    Вы не можете удалять свои сообщения
    Вы не можете голосовать в опросах
    Вы не можете прикреплять файлы к сообщениям
    Вы не можете скачивать файлы