BitTorrentTracker PerecTracker.org
BitTorrentTracker PerecTracker.org
    
Регистрация  ·  Вход
 
 · 
Забыли пароль?

  • Надой (Дмитрий Парёнкин) [2015, Деревенская комедия, WEB-DLRip]

    Ответить на тему
     
    Автор Сообщение

    rechyn

    Создавать темы 20-Май-2015 17:06

           

    [Цитировать]

    Надой
    Жанр: Деревенская комедия
    Год выпуска: 2015
    Продолжительность: 00:58:06
    Сценарист и Режиссёр: Дмитрий Парёнкин
    В ролях: Алексей Нелаев, Валерий Дюльдин, Андрей Кузнецов, Павел Мызников, Анастасия Бажутина, Дмитрий Парёнкин, Алексей Драгнев, Тимур Курманов, Григорий Люков, Илья Жованик, Дмитрий Баклажанский, Анна Муравьёва, Сергей Павлов, Александр Галансков и другие...
    Описание: Деревенский гений Кузьма участвует в конкурсе немецкой молочной компании и разрабатывает чудо-агрегат, способный увеличить надой в десятки раз. Верные друзья ему в этом помогают, а злодей (в лице Главы администрации) строит козни, пытаясь разработку присвоить себе. Мистические явления, лабиринты без выхода и секретная формула Кузьмы. Потрясающая летняя, деревенская комедия, обязательно придётся по вкусу всем любителям старого доброго советского кино!
    Сэмпл: http://multi-up.com/1049458
    Качество видео: WEB-DLRip
    Формат видео: AVI
    Видео: 720x304 (2.37:1), 24 fps, XviD build 50 ~1478 kbps avg, 0.28 bit/pixel
    Аудио: 48 kHz, AC3 Dolby Digital, 2/0 (L,R) ch, ~192 kbps

    Трейлер фильма

    https://youtu.be/_bkq_rgIhOM

    MediaInfo

    Полное имя : D:\Video\Надой.2015.WEB-DLRip.avi
    Формат : AVI
    Формат/Информация : Audio Video Interleave
    Размер файла : 698 Мбайт
    Продолжительность : 58 м.
    Общий поток : 1680 Кбит/сек
    Программа кодирования : VirtualDubMod 1.5.10.3 | www.virtualdub-fr.org || (build 2550/release)
    Библиотека кодирования : VirtualDubMod build 2550/release
    Видео
    Идентификатор : 0
    Формат : MPEG-4 Visual
    Профиль формата : Advanced Simple@L5
    Параметр BVOP формата : 1
    Параметр QPel формата : Нет
    Параметр GMC формата : Без точки перехода
    Параметр матрицы формата : Default (H.263)
    Идентификатор кодека : XVID
    Идентификатор кодека/Подсказка : XviD
    Продолжительность : 58 м.
    Битрейт : 1478 Кбит/сек
    Ширина : 720 пикселей
    Высота : 304 пикселя
    Соотношение сторон : 2,35:1
    Частота кадров : 24,000 кадра/сек
    Цветовое пространство : YUV
    Субдискретизация насыщенности : 4:2:0
    Битовая глубина : 8 бит
    Тип развёртки : Прогрессивная
    Метод сжатия : С потерями
    Бит/(Пиксели*Кадры) : 0.281
    Размер потока : 615 Мбайт (88%)
    Библиотека кодирования : XviD 1.2.1 (UTC 2008-12-04)
    Аудио
    Идентификатор : 1
    Формат : AC-3
    Формат/Информация : Audio Coding 3
    Расширение режима : CM (complete main)
    Идентификатор кодека : 2000
    Продолжительность : 58 м.
    Вид битрейта : Постоянный
    Битрейт : 192 Кбит/сек
    Каналы : 2 канала
    Расположение каналов : Front: L R
    Частота : 48,0 КГц
    Битовая глубина : 16 бит
    Метод сжатия : С потерями
    Размер потока : 79,8 Мбайт (11%)
    Выравнивание : Разделение по промежуткам
    Продолжительность промежутка : 42 мс. (1,00 видеокадр)
    Время предзагрузки промежутка : 500 мс.

    Скриншот c названием фильма

    Скриншоты







    Скачать .torrent

    Скачать торрент-файл бесплатно и на максимальной скорости!

    Как скачивать? · Что такое торрент? · Рейтинг и ограничения

    !ВНИМАНИЕ!
    Сайт не распространяет и не хранит электронные версии произведений, а занимается лишь лишь предоставлением доступа к создаваемому пользователями каталогу ссылок на торрент-файлы, которые содержат только списки хеш-сумм, убедительная просьба с жалобами обращаться напрямую к пользователю. Файлы для обмена на трекере предоставлены пользователями сайта, и администрация не несёт ответственности за их содержание. Просьба не заливать файлы, защищенные авторскими правами, а также файлы нелегального содержания!


    _________________
    [Профиль] [ЛС]
    Показать сообщения:    
    Ответить на тему

    Текущее время: Сегодня, в 12:49

    Часовой пояс: GMT + 2



    Вы не можете начинать темы
    Вы не можете отвечать на сообщения
    Вы не можете редактировать свои сообщения
    Вы не можете удалять свои сообщения
    Вы не можете голосовать в опросах
    Вы не можете прикреплять файлы к сообщениям
    Вы не можете скачивать файлы