BitTorrentTracker PerecTracker.org
BitTorrentTracker PerecTracker.org
    
Регистрация  ·  Вход
 
 · 
Забыли пароль?

  • Мордекай / Mortdecai (Дэвид Кепп / David Koepp) [2015, Великобритания, США, комедия, боевик, детектив, HDRip] DVO

    Ответить на тему
     
    Автор Сообщение

    rechyn

    Создавать темы 20-Май-2015 00:18

           

    [Цитировать]

    Мордекай / Mortdecai
    Страна: Великобритания, США
    Жанр: комедия, боевик, детектив
    Год выпуска: 2015
    Продолжительность: 01:46:42
    Перевод: Любительский (двухголосый закадровый)
    Cубтитры: нет
    Режиссер: Дэвид Кепп / David Koepp
    В ролях: Джонни Депп, Гвинет Пэлтроу, Пол Беттани, Юэн МакГрегор, Оливия Манн, Джонатон Пасвольски, Майкл Калкин, Ульрих Томсен, Алек Утгофф, Роб де Гроот
    Описание: В центре сюжета — история Чарльза Мордекая, обходительного арт-дельца и жулика по совместительству, который путешествует по всему миру и с помощью своего неотразимого обаяния пытается раздобыть украденную картину. По слухам, в этом произведении искусства содержится код доступа к банковской ячейке, наполненной нацистским золотом. По ходу Мордекаю приходится улаживать дела с недобрыми русскими, британской разведкой Mi5, международным террористом и со своей умопомрачительно длинноногой женой.
    Доп. инф:
    Релиз от:
    Сэмпл: http://multi-up.com/1049170
    Качество видео: HDRip
    Формат видео: AVI
    Видео: 720x304 (2.37:1), 23.976 fps, XviD build 73 ~1548 kbps avg, 0.29 bit/pixel
    Аудио: 48 kHz, AC3 Dolby Digital, 2/0 (L,R) ch, ~384.00 kbps avg

    MediaInfo

    D:\Mortdecai.2015__HDRip_[scarabey.org].avi
    General
    Complete name : D:\Mortdecai.2015__HDRip_[scarabey.org].avi
    Format : AVI
    Format/Info : Audio Video Interleave
    File size : 1.45 GiB
    Duration : 1h 46mn
    Overall bit rate : 1 942 Kbps
    Writing application : VirtualDubMod 1.5.10.3 | www.virtualdub-fr.org || (build 2550/release)
    Writing library : VirtualDubMod build 2550/release
    Video #0
    ID : 0
    Format : MPEG-4 Visual
    Format profile : Advanced Simple@L5
    Format settings, BVOP : 1
    Format settings, QPel : No
    Format settings, GMC : No warppoints
    Format settings, Matrix : Custom
    Codec ID : XVID
    Codec ID/Hint : XviD
    Duration : 1h 46mn
    Bit rate : 1 549 Kbps
    Width : 720 pixels
    Height : 304 pixels
    Display aspect ratio : 2.35:1
    Frame rate : 23.976 fps
    Color space : YUV
    Chroma subsampling : 4:2:0
    Bit depth : 8 bits
    Scan type : Progressive
    Compression mode : Lossy
    Bits/(Pixel*Frame) : 0.295
    Stream size : 1.15 GiB (80%)
    Writing library : XviD 73
    Audio #1
    ID : 1
    Format : AC-3
    Format/Info : Audio Coding 3
    Mode extension : CM (complete main)
    Format settings, Endianness : Big
    Codec ID : 2000
    Duration : 1h 46mn
    Bit rate mode : Constant
    Bit rate : 384 Kbps
    Channel(s) : 2 channels
    Channel positions : Front: L R
    Sampling rate : 48.0 KHz
    Bit depth : 16 bits
    Compression mode : Lossy
    Stream size : 293 MiB (20%)
    Alignment : Split accross interleaves
    Interleave, duration : 42 ms (1.00 video frame)
    Interleave, preload duration : 500 ms

    Скриншот c названием фильма

    Скриншоты


    Скачать .torrent

    Скачать торрент-файл бесплатно и на максимальной скорости!

    Как скачивать? · Что такое торрент? · Рейтинг и ограничения

    !ВНИМАНИЕ!
    Сайт не распространяет и не хранит электронные версии произведений, а занимается лишь лишь предоставлением доступа к создаваемому пользователями каталогу ссылок на торрент-файлы, которые содержат только списки хеш-сумм, убедительная просьба с жалобами обращаться напрямую к пользователю. Файлы для обмена на трекере предоставлены пользователями сайта, и администрация не несёт ответственности за их содержание. Просьба не заливать файлы, защищенные авторскими правами, а также файлы нелегального содержания!


    _________________
    [Профиль] [ЛС]
    Показать сообщения:    
    Ответить на тему

    Текущее время: Сегодня, в 20:16

    Часовой пояс: GMT + 2



    Вы не можете начинать темы
    Вы не можете отвечать на сообщения
    Вы не можете редактировать свои сообщения
    Вы не можете удалять свои сообщения
    Вы не можете голосовать в опросах
    Вы не можете прикреплять файлы к сообщениям
    Вы не можете скачивать файлы