BitTorrentTracker PerecTracker.org
BitTorrentTracker PerecTracker.org
    
Регистрация  ·  Вход
 
 · 
Забыли пароль?

  • Арестуйте меня / Arretez-moi (Жан-Поль Лильенфельд / Jean-Paul Lilienfeld) [2013, Франция, Триллер, WEB-DLRip] MVO

    Ответить на тему
     
    Автор Сообщение

    Light

    Создавать темы 19-Май-2015 19:54

           

    [Цитировать]

    Арестуйте меня / Arrêtez-moi
    Страна: Франция
    Жанр: Триллер
    Год выпуска: 2013
    Продолжительность: 01:39:26
    Перевод: Профессиональный (многоголосый закадровый) Студия дубляжа «Back Board Cinema»
    Cубтитры: нет
    Оригинальная аудиодорожка: нет
    Режиссер: Жан-Поль Лильенфельд / Jean-Paul Lilienfeld
    В ролях: Софи Марсо, Миу-Миу, Янн Эбонж, Марк Барбе, Валери Бодсон, Артур Бюиссен, Вадим Гудсмитс, Клодин Пеллетье, Женни Клев, Роже Де Моэрлос
    Описание: Однажды вечером женщина приходит в полицейский участок, чтобы признаться в убийстве своего мужа, совершенном десять лет назад, мужа, который издевался над ней и регулярно избивал ее. Несмотря на то, что следствие тогда пришло к выводу, что смерть была либо случайной, либо наступила в результате самоубийства, вдова покойного заявляет, что это все - дело ее рук.
    Сэмпл / КиноПоиск
    Качество видео: WEB-DLRip
    Формат видео: AVI
    Видео: MPEG-4 Visual at 1899 Кбит/сек, 720 x 320 (2.250) at 25.000 fps
    Аудио: Rus AC-3 at 192 Кбит/сек, 2 канала, 48,0 КГц

    MediaInfo

    Общее
    Полное имя : C:\Kino\Rutracker-Razdachi\Арестуйте.меня.2013.WEBDLRip.avi
    Формат : AVI
    Формат/Информация : Audio Video Interleave
    Размер файла : 1,46 Гбайт
    Продолжительность : 1 ч. 39 м.
    Общий поток : 2100 Кбит/сек
    Программа кодирования : VirtualDubMod 1.5.10.2 (build 2540/release)
    Библиотека кодирования : VirtualDubMod build 2540/release
    Видео
    Идентификатор : 0
    Формат : MPEG-4 Visual
    Профиль формата : Advanced Simple@L5
    Параметр BVOP формата : 2
    Параметр QPel формата : Нет
    Параметр GMC формата : Без точки перехода
    Параметр матрицы формата : Default (MPEG)
    Идентификатор кодека : XVID
    Идентификатор кодека/Подсказка : XviD
    Продолжительность : 1 ч. 39 м.
    Битрейт : 1899 Кбит/сек
    Ширина : 720 пикселей
    Высота : 320 пикселей
    Соотношение сторон : 2,25:1
    Частота кадров : 25,000 кадров/сек
    Цветовое пространство : YUV
    Субдискретизация насыщенности : 4:2:0
    Битовая глубина : 8 бит
    Тип развёртки : Прогрессивная
    Метод сжатия : С потерями
    Бит/(Пиксели*Кадры) : 0.330
    Размер потока : 1,32 Гбайт (90%)
    Библиотека кодирования : XviD 1.2.1 (UTC 2008-12-04)
    Аудио
    Идентификатор : 1
    Формат : AC-3
    Формат/Информация : Audio Coding 3
    Расширение режима : CM (complete main)
    Параметр Endianness формата : Big
    Идентификатор кодека : 2000
    Продолжительность : 1 ч. 39 м.
    Вид битрейта : Постоянный
    Битрейт : 192 Кбит/сек
    Каналы : 2 канала
    Расположение каналов : Front: L R
    Частота : 48,0 КГц
    Битовая глубина : 16 бит
    Метод сжатия : С потерями
    Размер потока : 137 Мбайт (9%)
    Выравнивание : Разделение по промежуткам
    Продолжительность промежутка : 40 мс. (1,00 видеокадр)
    Время предзагрузки промежутка : 500 мс.

    Скриншоты


    -
    Сообщения из этой темы [3 шт.] были выделены в отдельную тему Gangsteel [id: 19999326] (мат)
    xfiles
    Скачать .torrent

    Скачать торрент-файл бесплатно и на максимальной скорости!

    Как скачивать? · Что такое торрент? · Рейтинг и ограничения

    !ВНИМАНИЕ!
    Сайт не распространяет и не хранит электронные версии произведений, а занимается лишь лишь предоставлением доступа к создаваемому пользователями каталогу ссылок на торрент-файлы, которые содержат только списки хеш-сумм, убедительная просьба с жалобами обращаться напрямую к пользователю. Файлы для обмена на трекере предоставлены пользователями сайта, и администрация не несёт ответственности за их содержание. Просьба не заливать файлы, защищенные авторскими правами, а также файлы нелегального содержания!


    _________________
    [Профиль] [ЛС]
    Показать сообщения:    
    Ответить на тему

    Текущее время: Сегодня, в 11:57

    Часовой пояс: GMT + 2



    Вы не можете начинать темы
    Вы не можете отвечать на сообщения
    Вы не можете редактировать свои сообщения
    Вы не можете удалять свои сообщения
    Вы не можете голосовать в опросах
    Вы не можете прикреплять файлы к сообщениям
    Вы не можете скачивать файлы