BitTorrentTracker PerecTracker.org
BitTorrentTracker PerecTracker.org
    
Регистрация  ·  Вход
 
 · 
Забыли пароль?

  • Полевая гвардия Мозжухина (Валерий Лонской) [1985, социальная драма, DVB]

    Ответить на тему
     
    Автор Сообщение

    Light

    Создавать темы 19-Май-2015 03:06

           

    [Цитировать]

    Полевая гвардия Мозжухина
    Жанр: социальная драма
    Год выпуска: 1985
    Продолжительность: 1:34:39
    Режиссёр: Валерий Лонской
    В ролях: Василий Бочкарёв, Андрей Ташков, Татьяна Аксюта, Борис Щербаков, Эдуард Бочаров, Янина Лисовская, Владимир Земляникин, Василий Маслаков, Игорь Боховко, Анатолий Ведёнкин, Владимир Кашпур, Николай Маликов, Валентина Панина, Владимир Плотников, Роман Хомятов
    Описание: Фёдор Мозжухин, проработав несколько лет на разных стройках страны, вернулся в родное село и организовал в колхозе звено механизаторов, работающее по подряду. Сразу же нашлись критики новой организации труда, выявились лодыри и завистники. Село очнулось от спячки...
    Семпл: http://sendfile.su/1119320
    Качество видео: DVB
    Формат видео: MPEG-PS
    Видео: MPEG2 Video 720x576 (4:3) 25,000 кадров/сек 2620 Кбит/сек (5,0 Мбит/сек)
    Аудио: Русский MPEG Audio 48,0 КГц 2 канала 192 Кбит/сек

    MediaInfo

    Общее
    Полное имя : E:\Torrents\СВОИ\Полевая гвардия Мозжухина.mpg
    Формат : MPEG-PS
    Размер файла : 1,90 Гбайт
    Продолжительность : 1 ч. 34 м.
    Режим общего битрейта : Переменный
    Общий поток : 2870 Кбит/сек
    Библиотека кодирования : (c) 1998-2010 Womble Multimedia, Inc. / MPEG Video Wizard DVD 5.0.0.114 (01/2010) / Jul 5 2010
    Видео
    Идентификатор : 224 (0xE0)
    Формат : MPEG Video
    Версия формата : Version 2
    Профиль формата : Main@Main
    Параметр BVOP формата : Да
    Параметр матрицы формата : Выборочная
    Параметр GOP формата : M=3, N=12
    Format_Settings_PictureStructure : Frame
    Продолжительность : 1 ч. 34 м.
    Вид битрейта : Переменный
    Битрейт : 2620 Кбит/сек
    Максимальный битрейт : 5000 Кбит/сек
    Ширина : 720 пикселей
    Высота : 576 пикселей
    Соотношение сторон : 4:3
    Частота кадров : 25,000 кадров/сек
    Стандарт вещания : PAL
    Цветовое пространство : YUV
    Субдискретизация насыщенности : 4:2:0
    Битовая глубина : 8 бит
    Тип развёртки : Чересстрочная
    Порядок развёртки : Верхнее поле первое
    Метод сжатия : С потерями
    Бит/(Пиксели*Кадры) : 0.253
    Временной код первого кадра : 00:00:00:00
    Оригинал временного кода : Group of pictures header
    Размер потока : 1,73 Гбайт (91%)
    Библиотека кодирования : (c) 1998-2010 Womble Multimedia, Inc. / MPEG Video Wizard DVD 5.0.0.114 (01/2010) / Jul 5 2010
    Gop_OpenClosed_FirstFrame : Closed
    Аудио
    Идентификатор : 192 (0xC0)
    Формат : MPEG Audio
    Версия формата : Version 1
    Профиль формата : Layer 2
    Продолжительность : 1 ч. 34 м.
    Вид битрейта : Постоянный
    Битрейт : 192 Кбит/сек
    Каналы : 2 канала
    Частота : 48,0 КГц
    Метод сжатия : С потерями
    Размер потока : 130 Мбайт (7%)
    Меню

    Скриншоты


    Скачать .torrent

    Скачать торрент-файл бесплатно и на максимальной скорости!

    Как скачивать? · Что такое торрент? · Рейтинг и ограничения

    !ВНИМАНИЕ!
    Сайт не распространяет и не хранит электронные версии произведений, а занимается лишь лишь предоставлением доступа к создаваемому пользователями каталогу ссылок на торрент-файлы, которые содержат только списки хеш-сумм, убедительная просьба с жалобами обращаться напрямую к пользователю. Файлы для обмена на трекере предоставлены пользователями сайта, и администрация не несёт ответственности за их содержание. Просьба не заливать файлы, защищенные авторскими правами, а также файлы нелегального содержания!


    _________________
    [Профиль] [ЛС]
    Показать сообщения:    
    Ответить на тему

    Текущее время: Сегодня, в 08:15

    Часовой пояс: GMT + 2



    Вы не можете начинать темы
    Вы не можете отвечать на сообщения
    Вы не можете редактировать свои сообщения
    Вы не можете удалять свои сообщения
    Вы не можете голосовать в опросах
    Вы не можете прикреплять файлы к сообщениям
    Вы не можете скачивать файлы