Register  ·  Log in
Forgot password?

  • Врожденный порок / Inherent Vice (Пол Томас Андерсон / Paul Thomas Anderson) [2014, США, Драма, криминал, детектив, BDRip] MVO

    Reply to topic
    Author Message


    Post 19-May-2015 04:06



    Врожденный порок / Inherent Vice-Год выпуска: 2014
    Dsgeotyj: США / Warner Bros. Pictures, IAC Films
    Жанр: драма, криминал, детектив
    Продолжительность: 02:28:43
    Перевод: Профессиональный (многоголосый закадровый) BD CEE
    Cубтитры: нет-Режиссер:
    Пол Томас Андерсон / Paul Thomas Anderson-В ролях:
    Хоакин Феникс (Larry «Doc» Sportello), Джош Бролин (Lt. Det. Christian F. «Bigfoot» Bjornsen), Оуэн Уилсон (Coy Harlingen), Кэтрин Уотерстон (Shasta Fay Hepworth), Риз Уизерспун (Deputy D.A. Penny Kimball), Бенисио Дель Торо (Sauncho Smilax, Esq), Джена Мэлоун (Hope Harlingen), Майя Рудольф (Petunia Leeway), Мартин Шорт (Dr. Rudy Blatnoyd, D.D.S.), Джоэнна Ньюсом (Sortilège)-Описание:
    Действие развивается в Лос-Анджелесе в конце 60-х. Главный герой Ларри Спортелло трудится на почве частного сыска и сильно увлекается марихуаной. Его разыскивает бывшая подруга, но вскоре женщина исчезает вместе со своим новым богатым поклонником. Ларри начинает расследовать дело.-Релиз групп
    | | IMDB | КиноПоиск | Сэмпл |-Качество: BDRip [Blu-ray Disc | 1080p | HDCLUB]
    Формат: AVI
    Видео: 720x384 (1.88:1), 23.976 fps, XviD build 73 ~1265 kbps avg, 0.19 bit/pixel
    Аудио: 48 kHz, MPEG Layer 3, 2 ch, ~128.00 kbps avg-



    Complete name                            : D:\Vrozhdennyi_porok_2014_BDRip_by_Dalemake.avi
    Format                                   : AVI
    Format/Info                              : Audio Video Interleave
    File size                                : 1.46 GiB
    Duration                                 : 2h 28mn
    Overall bit rate                         : 1 403 Kbps
    Writing application                      : VirtualDubMod | || (build 2550/release)
    Writing library                          : VirtualDubMod build 2550/release
    ID                                       : 0
    Format                                   : MPEG-4 Visual
    Format profile                           : Advanced Simple@L5
    Format settings, BVOP                    : 1
    Format settings, QPel                    : No
    Format settings, GMC                     : No warppoints
    Format settings, Matrix                  : Custom
    Codec ID                                 : XVID
    Codec ID/Hint                            : XviD
    Duration                                 : 2h 28mn
    Bit rate                                 : 1 265 Kbps
    Width                                    : 720 pixels
    Height                                   : 384 pixels
    Display aspect ratio                     : 1.85:1
    Frame rate                               : 23.976 fps
    Color space                              : YUV
    Chroma subsampling                       : 4:2:0
    Bit depth                                : 8 bits
    Scan type                                : Progressive
    Compression mode                         : Lossy
    Bits/(Pixel*Frame)                       : 0.191
    Stream size                              : 1.31 GiB (90%)
    Writing library                          : XviD 73
    ID                                       : 1
    Format                                   : MPEG Audio
    Format version                           : Version 1
    Format profile                           : Layer 3
    Codec ID                                 : 55
    Codec ID/Hint                            : MP3
    Duration                                 : 2h 28mn
    Bit rate mode                            : Constant
    Bit rate                                 : 128 Kbps
    Channel(s)                               : 2 channels
    Sampling rate                            : 48.0 KHz
    Compression mode                         : Lossy
    Stream size                              : 136 MiB (9%)
    Alignment                                : Aligned on interleaves
    Interleave, duration                     : 42 ms (1.00 video frame)
    Interleave, preload duration             : 504 ms
    Writing library                          : LAME3.99r
    Encoding settings                        : -m s -V 4 -q 2 -lowpass 17 -b 128
    Download .torrent

    Download free and at maximum speed!

    How to Download? · What is a torrent? · Ratings and Limitations

    The site does not extend and does not store electronic(digital) versions of products, and only gives access to a reference catalogue created by users on torrent-files which contain only lists of the hash-sums, the earnest entreaty, with complaints(abuse) to access directly to the user. Files for an exchange on tracker are given by users of a site, and the administration does not bear the responsibility for their maintenance. The request to not fill in the files protected by copyrights, and also files of the illegal maintenance!

    [Profile] [PM]
    Display posts from previous:    
    Reply to topic

    The time now is: Today 19:07

    All times are GMT + 3 Hours

    You cannot post new topics in this forum
    You cannot reply to topics in this forum
    You cannot edit your posts in this forum
    You cannot delete your posts in this forum
    You cannot vote in polls in this forum
    You cannot attach files in this forum
    You cannot download files in this forum