BitTorrentTracker PerecTracker.org
BitTorrentTracker PerecTracker.org
    
Регистрация  ·  Вход
 
 · 
Забыли пароль?

  • Дракула / Dracula Untold (Гари Шор / Gary Shore) [2014 г., США, ужасы, фэнтези, боевик, драма, BDRip-AVC] Dub + Original Eng + Sub (Rus, Eng)

    Ответить на тему
     
    Автор Сообщение

    Light

    Создавать темы 19-Май-2015 03:06

           

    [Цитировать]

    -Дракула / Dracula Untold--Год выпуска: 2014Страна: СШАЖанр: ужасы, фэнтези, боевик, драма-Продолжительность: 01:32:08Перевод: Профессиональный (дублированный) BD EUR | Пифагор |Субтитры: русские (полные х2, форсированные), украинские (полные, форсированные), английские (полные, форсированные, полные SDH, полные SDH цветные)--Режиссер:Гари Шор / Gary Shore-В ролях:Люк Эванс (Vlad), Сара Гадон (Mirena), Доминик Купер (Mehmed), Арт Паркинсон (Ingeras), Чарльз Дэнс (Master Vampire), Дайармейд Мерта (Dumitru), Пол Кэй (Brother Lucian), Уильям Хьюстон (Cazan), Ной Хантли (Captain Petru), Ронан Вайберт (Simion), Зэк МакГоун (Shkelgim), Фердинанд Кингсли (Hamza Bey)-Описание:
    Влад Дракула был величайшим правителем, доблестным воином и страстным мужчиной. Но судьба свела его с врагом, коварство которого не знало границ. И тогда Дракула заключил сделку — нечеловеческая сила в обмен на самую малость — бессмертную душу…
    --Дополнительная информация:-
    -Сэмпл Рип НЕ совместим с бытовыми DVD-проигрывателями.--Качество видео: BDRip-AVC (Исходник: Blu-ray EUR / 1080p )
    Формат видео: MKV
    Видео: 1152x480 (2.40:1), 23.976 fps, MPEG-4 AVC, ~2228 kbps avg, 0.168 bit/pixel
    Аудио 1: 48 kHz, AC3 Dolby Digital, 3/2 (L,C,R,l,r) + LFE ch, ~448 kbps avg (DUB) (Dub)
    Аудио 2: 48 kHz, AC3 Dolby Digital, 3/2 (L,C,R,l,r) + LFE ch, ~448 kbps avg (ENG)
    Главы: есть-

    MediaInfo

    Уникальный идентификатор : 192794624358215407183572222166986246347 (0x910AE4DE49977D968CE7D5C7B3ADC8CB)
    Полное имя : Dracula.Untold.2014.DUAL.BDRip-AVC.x264.AC3.-HQCLUB.mkv
    Формат : Matroska
    Версия формата : Version 2
    Размер файла : 2,05 Гбайт
    Продолжительность : 1 ч. 32 м.
    Общий поток : 3187 Кбит/сек
    Дата кодирования : UTC 2015-01-24 15:24:52
    Программа кодирования : mkvmerge v5.2.0 ('I can't explain') built on Dec 18 2011 18:12:03
    Библиотека кодирования : libebml v1.2.3 + libmatroska v1.3.0
    Видео
    Идентификатор : 1
    Формат : AVC
    Формат/Информация : Advanced Video Codec
    Профиль формата : High@L4.1
    Параметр CABAC формата : Да
    Параметр ReFrames формата : 14 кадров
    Идентификатор кодека : V_MPEG4/ISO/AVC
    Продолжительность : 1 ч. 32 м.
    Битрейт : 2228 Кбит/сек
    Ширина : 1152 пикселя
    Высота : 480 пикселей
    Соотношение сторон : 2,40:1
    Режим частоты кадров : Постоянный
    Частота кадров : 23,976 кадра/сек
    Цветовое пространство : YUV
    Субдискретизация насыщенности : 4:2:0
    Битовая глубина : 8 бит
    Тип развёртки : Прогрессивная
    Бит/(Пиксели*Кадры) : 0.168
    Размер потока : 1,43 Гбайт (70%)
    Заголовок : Дракула / Dracula Untold (2014) BDRip-AVC by HQCLUB [Elheym]
    Библиотека кодирования : x264 core 144 r2525kMod 40bb568
    Настройки программы : cabac=1 / ref=14 / deblock=1:-3:-2 / analyse=0x3:0x133 / me=umh / subme=11 / psy=1 / fade_compensate=0.00 / psy_rd=0.95:0.00 / mixed_ref=1 / me_range=32 / chroma_me=1 / trellis=2 / 8x8dct=1 / cqm=0 / deadzone=21,11 / fast_pskip=0 / chroma_qp_offset=-4 / threads=6 / lookahead_threads=1 / sliced_threads=0 / nr=0 / decimate=1 / interlaced=0 / bluray_compat=0 / constrained_intra=0 / fgo=0 / bframes=14 / b_pyramid=2 / b_adapt=2 / b_bias=0 / direct=1 / weightb=1 / open_gop=0 / weightp=2 / keyint=230 / keyint_min=23 / scenecut=40 / intra_refresh=0 / rc_lookahead=40 / rc=crf / mbtree=0 / crf=19.2000 / qcomp=0.70 / qpmin=0 / qpmax=69 / qpstep=4 / vbv_maxrate=50000 / vbv_bufsize=62500 / crf_max=0.0 / nal_hrd=none / filler=0 / ip_ratio=1.40 / pb_ratio=1.30 / aq=2:0.90 / zones=125013,132548,b=0.24
    Язык : English
    Default : Да
    Forced : Нет
    Аудио #1
    Идентификатор : 2
    Формат : AC-3
    Формат/Информация : Audio Coding 3
    Расширение режима : CM (complete main)
    Параметр Endianness формата : Big
    Идентификатор кодека : A_AC3
    Продолжительность : 1 ч. 32 м.
    Вид битрейта : Постоянный
    Битрейт : 448 Кбит/сек
    Каналы : 6 каналов
    Расположение каналов : Front: L C R, Side: L R, LFE
    Частота : 48,0 КГц
    Битовая глубина : 16 бит
    Метод сжатия : С потерями
    Размер потока : 295 Мбайт (14%)
    Заголовок : АС3 5.1 @ 448 kbps - Dub, BD EUR
    Язык : Russian
    Default : Нет
    Forced : Нет
    Аудио #2
    Идентификатор : 3
    Формат : AC-3
    Формат/Информация : Audio Coding 3
    Расширение режима : CM (complete main)
    Параметр Endianness формата : Big
    Идентификатор кодека : A_AC3
    Продолжительность : 1 ч. 32 м.
    Вид битрейта : Постоянный
    Битрейт : 448 Кбит/сек
    Каналы : 6 каналов
    Расположение каналов : Front: L C R, Side: L R, LFE
    Частота : 48,0 КГц
    Битовая глубина : 16 бит
    Метод сжатия : С потерями
    Размер потока : 295 Мбайт (14%)
    Заголовок : АС3 5.1 @ 448 kbps - Original
    Язык : English
    Default : Нет
    Forced : Нет
    Текст #1
    Идентификатор : 4
    Формат : UTF-8
    Идентификатор кодека : S_TEXT/UTF8
    Идентификатор кодека/Информация : UTF-8 Plain Text
    Заголовок : Full v.1
    Язык : Russian
    Default : Нет
    Forced : Нет
    Текст #2
    Идентификатор : 5
    Формат : UTF-8
    Идентификатор кодека : S_TEXT/UTF8
    Идентификатор кодека/Информация : UTF-8 Plain Text
    Заголовок : Full v.2
    Язык : Russian
    Default : Нет
    Forced : Нет
    Текст #3
    Идентификатор : 6
    Формат : UTF-8
    Идентификатор кодека : S_TEXT/UTF8
    Идентификатор кодека/Информация : UTF-8 Plain Text
    Заголовок : Forced
    Язык : Russian
    Default : Нет
    Forced : Нет
    Текст #4
    Идентификатор : 7
    Формат : UTF-8
    Идентификатор кодека : S_TEXT/UTF8
    Идентификатор кодека/Информация : UTF-8 Plain Text
    Заголовок : Full
    Язык : Ukrainian
    Default : Нет
    Forced : Нет
    Текст #5
    Идентификатор : 8
    Формат : UTF-8
    Идентификатор кодека : S_TEXT/UTF8
    Идентификатор кодека/Информация : UTF-8 Plain Text
    Заголовок : Forced
    Язык : Ukrainian
    Default : Нет
    Forced : Нет
    Текст #6
    Идентификатор : 9
    Формат : UTF-8
    Идентификатор кодека : S_TEXT/UTF8
    Идентификатор кодека/Информация : UTF-8 Plain Text
    Заголовок : Full
    Язык : English
    Default : Нет
    Forced : Нет
    Текст #7
    Идентификатор : 10
    Формат : UTF-8
    Идентификатор кодека : S_TEXT/UTF8
    Идентификатор кодека/Информация : UTF-8 Plain Text
    Заголовок : Forced
    Язык : English
    Default : Нет
    Forced : Нет
    Текст #8
    Идентификатор : 11
    Формат : UTF-8
    Идентификатор кодека : S_TEXT/UTF8
    Идентификатор кодека/Информация : UTF-8 Plain Text
    Заголовок : Full SDH
    Язык : English
    Default : Нет
    Forced : Нет
    Текст #9
    Идентификатор : 12
    Формат : UTF-8
    Идентификатор кодека : S_TEXT/UTF8
    Идентификатор кодека/Информация : UTF-8 Plain Text
    Заголовок : Full SDH Colored
    Язык : English
    Default : Нет
    Forced : Нет
    Меню
    00:00:00.000 : :Chapter 01
    00:04:07.288 : :Chapter 02
    00:07:20.565 : :Chapter 03
    00:11:32.817 : :Chapter 04
    00:16:30.698 : :Chapter 05
    00:22:53.663 : :Chapter 06
    00:30:23.446 : :Chapter 07
    00:34:16.763 : :Chapter 08
    00:38:57.043 : :Chapter 09
    00:43:00.369 : :Chapter 10
    00:47:03.737 : :Chapter 11
    00:53:16.735 : :Chapter 12
    00:57:39.831 : :Chapter 13
    01:00:47.310 : :Chapter 14
    01:04:30.032 : :Chapter 15
    01:09:12.189 : :Chapter 16
    01:12:47.613 : :Chapter 17
    01:17:11.877 : :Chapter 18
    01:21:52.657 : :Chapter 19
    01:25:02.555 : :Chapter 20
    01:32:08.147 : :Chapter 21

    x264 log

    x264 [info]: frame I:977 Avg QP:17.10 size: 67633
    x264 [info]: frame P:26630 Avg QP:18.73 size: 25157
    x264 [info]: frame B:104942 Avg QP:21.26 size: 8058
    x264 [info]: consecutive B-frames: 2.2% 2.1% 7.0% 11.1% 14.5% 44.0% 5.9% 4.6% 2.1% 1.4% 1.3% 0.9% 1.6% 0.7% 0.5%
    x264 [info]: ref P L0: 46.7% 8.3% 17.2% 6.8% 5.1% 3.8% 3.1% 1.8% 1.5% 1.3% 1.2% 1.0% 1.0% 0.9% 0.3% 0.0%
    x264 [info]: ref B L0: 73.2% 11.7% 5.6% 2.7% 1.8% 1.4% 1.1% 0.7% 0.5% 0.5% 0.4% 0.2% 0.1%
    x264 [info]: ref B L1: 92.0% 8.0%
    Скачать .torrent

    Скачать торрент-файл бесплатно и на максимальной скорости!

    Как скачивать? · Что такое торрент? · Рейтинг и ограничения

    !ВНИМАНИЕ!
    Сайт не распространяет и не хранит электронные версии произведений, а занимается лишь лишь предоставлением доступа к создаваемому пользователями каталогу ссылок на торрент-файлы, которые содержат только списки хеш-сумм, убедительная просьба с жалобами обращаться напрямую к пользователю. Файлы для обмена на трекере предоставлены пользователями сайта, и администрация не несёт ответственности за их содержание. Просьба не заливать файлы, защищенные авторскими правами, а также файлы нелегального содержания!


    _________________
    [Профиль] [ЛС]
    Показать сообщения:    
    Ответить на тему

    Текущее время: Сегодня, в 08:15

    Часовой пояс: GMT + 2



    Вы не можете начинать темы
    Вы не можете отвечать на сообщения
    Вы не можете редактировать свои сообщения
    Вы не можете удалять свои сообщения
    Вы не можете голосовать в опросах
    Вы не можете прикреплять файлы к сообщениям
    Вы не можете скачивать файлы