BitTorrentTracker PerecTracker.org
BitTorrentTracker PerecTracker.org
    
Регистрация  ·  Вход
 
 · 
Забыли пароль?

  • Полночь в Индии / Nightfall in India / Anochece en la India (Чема Родригез / Chema Rodriguez) [2014, Испания, Румыния, Швеция, Турция, Индия, драма, мелодрама, приключения, DVDRip] Sub Rus + Original Spa

    Ответить на тему
     
    Автор Сообщение

    Light

    Создавать темы 19-Май-2015 03:06

           

    [Цитировать]

    Полночь в Индии / Nightfall in India / Anochece en la India
    Страна: Испания, Румыния, Швеция, Турция, Индия
    Жанр: драма, мелодрама, приключения
    Год выпуска: 2014
    Продолжительность: 01:34:55
    Перевод: Субтитры: creo140
    Cубтитры: русские
    Оригинальная аудиодорожка: испанский
    Режиссер: Чема Родригез / Chema Rodríguez
    В ролях: Кен Эпплдорн, Клара Вода, Линда Молин, Хавьер Перейра, Хуан Диего, Ванесса Кастро
    Описание: Прикованный вот уже десять лет к инвалидной коляске Рикардо отправляется в долгое прощальное путешествие на машине в Индию. Он хочет встретить свою старую любовь Гадхали и спокойно умереть на берегу Ганга. Сопровождать Рикардо в дороге вызвалась его румынская экономка Дана.
    Доп. информация:

    https://marcusdoo.bandcamp.com/album/the-magpie-returned-the-ring
    Сэмпл: http://multi-up.com/1049109
    Качество видео: DVDRip
    Формат видео: AVI
    Видео: Xvid 720x304 25fps 1603kbps
    Аудио: Dolby AC3 48000Hz 6ch 448kbps
    Формат субтитров: softsub (SRT)

    Фрагмент субтитров

    118
    00:12:09,120 --> 00:12:11,327
    И сколько месяцев
    мы будем там?
    119
    00:12:11,960 --> 00:12:12,439
    Дана!
    120
    00:12:12,440 --> 00:12:13,140
    Дана!
    121
    00:12:17,360 --> 00:12:19,567
    Это номер телефона Энрике,
    позвони ему.
    122
    00:12:19,960 --> 00:12:21,940
    Когда я уеду,
    ты сможешь устроиться к нему.
    123
    00:12:21,960 --> 00:12:23,260
    Они как раз подыскивают...
    124
    00:12:23,298 --> 00:12:24,798
    И они вспомнили о тебе.
    125
    00:12:27,400 --> 00:12:28,606
    Что происходит?
    126
    00:12:28,960 --> 00:12:31,042
    Ты даже не поблагодаришь меня?
    127
    00:12:31,240 --> 00:12:31,990
    Послушай, Дана.
    128
    00:12:32,040 --> 00:12:34,540
    У них нет детей, нет собак
    и по ночам они спят.
    129
    00:12:35,200 --> 00:12:37,170
    Ты будешь работать
    вполовину меньше,

    MediaInfo

    Формат : AVI
    Формат/Информация : Audio Video Interleave
    Размер файла : 1,37 Гбайт
    Продолжительность : 1 ч. 34 м.
    Общий поток : 2061 Кбит/сек
    Программа кодирования : VirtualDubMod 1.5.10.3 | www.virtualdub-fr.org || (build 2550/release)
    Библиотека кодирования : VirtualDubMod build 2550/release
    Видео
    Идентификатор : 0
    Формат : MPEG-4 Visual
    Профиль формата : Advanced Simple@L5
    Параметр BVOP формата : 1
    Параметр QPel формата : Нет
    Параметр GMC формата : Без точки перехода
    Параметр матрицы формата : Default (MPEG)
    Идентификатор кодека : XVID
    Идентификатор кодека/Подсказка : XviD
    Продолжительность : 1 ч. 34 м.
    Битрейт : 1603 Кбит/сек
    Ширина : 720 пикселей
    Высота : 304 пикселя
    Соотношение сторон : 2,35:1
    Частота кадров : 25,000 кадров/сек
    Цветовое пространство : YUV
    Субдискретизация насыщенности : 4:2:0
    Битовая глубина : 8 бит
    Тип развёртки : Прогрессивная
    Метод сжатия : С потерями
    Бит/(Пиксели*Кадры) : 0.293
    Размер потока : 1,06 Гбайт (78%)
    Библиотека кодирования : XviD 1.2.1 (UTC 2008-12-04)
    Аудио
    Идентификатор : 1
    Формат : AC-3
    Формат/Информация : Audio Coding 3
    Расширение режима : CM (complete main)
    Параметр Endianness формата : Big
    Идентификатор кодека : 2000
    Продолжительность : 1 ч. 34 м.
    Вид битрейта : Постоянный
    Битрейт : 448 Кбит/сек
    Каналы : 6 каналов
    Расположение каналов : Front: L C R, Side: L R, LFE
    Частота : 48,0 КГц
    Битовая глубина : 16 бит
    Метод сжатия : С потерями
    Размер потока : 304 Мбайт (22%)
    Выравнивание : Разделение по промежуткам
    Продолжительность промежутка : 40 мс. (1,00 видеокадр)
    Время предзагрузки промежутка : 500 мс.

    Скриншот c названием фильма

    Скриншоты

    Скачать .torrent

    Скачать торрент-файл бесплатно и на максимальной скорости!

    Как скачивать? · Что такое торрент? · Рейтинг и ограничения

    !ВНИМАНИЕ!
    Сайт не распространяет и не хранит электронные версии произведений, а занимается лишь лишь предоставлением доступа к создаваемому пользователями каталогу ссылок на торрент-файлы, которые содержат только списки хеш-сумм, убедительная просьба с жалобами обращаться напрямую к пользователю. Файлы для обмена на трекере предоставлены пользователями сайта, и администрация не несёт ответственности за их содержание. Просьба не заливать файлы, защищенные авторскими правами, а также файлы нелегального содержания!


    _________________
    [Профиль] [ЛС]
    Показать сообщения:    
    Ответить на тему

    Текущее время: Сегодня, в 11:59

    Часовой пояс: GMT + 2



    Вы не можете начинать темы
    Вы не можете отвечать на сообщения
    Вы не можете редактировать свои сообщения
    Вы не можете удалять свои сообщения
    Вы не можете голосовать в опросах
    Вы не можете прикреплять файлы к сообщениям
    Вы не можете скачивать файлы