Register  ·  Log in
Forgot password?

  • Связанная / Bound (Джаред Кон / Jared Cohn) [2015, США, триллер, драма, WEB-DLRip] VO (datynet)

    Reply to topic
    Author Message


    Post 18-May-2015 23:54



    Связанная / Bound
    Страна: США
    Жанр: триллер, драма
    Год выпуска: 2015
    Продолжительность: 01:30:51
    Перевод: Одноголосый (закадровый) [datynet] по переводу [anton1]
    Оригинальная аудиодорожка: нет
    Режиссер: Джаред Кон / Jared Cohn
    В ролях:Дэниэл Болдуин, Каризма Карпентер, Брайс Дрэйпер, Хэйли МакЛафлин, Майкл Монкс, Террелл Оуэнс, Стеффини Фроммани, Марк МакКлейн Уилсон
    Описание:Дочь богатого брокера недвижимости влюбляется в молодого человека, который вводит ее в мир БДСМ. Используя своё недавно пробудившееся сексуальное мастерство, она, наконец, берет контроль над собственной жизнью в свои руки

    Качество: WEB-DLRip
    Контейнер: AVI
    Видео: 688x384 (1.79:1), 23.976 fps, XviD build 50 ~1133 kbps avg, 0.18 bit/pixel
    Аудио: 44.100 kHz, MPEG Layer 3, 2 ch, ~128.00 kbps avg


    Complete name : C:\Users\Слава\Downloads\Связанная_WEB-DLRip_Некул.avi
    Format : AVI
    Format/Info : Audio Video Interleave
    File size : 739 MiB
    Duration : 1h 30mn
    Overall bit rate : 1 138 Kbps
    Writing application : VirtualDubMod | || (build 2550/release)
    Writing library : VirtualDubMod build 2550/release
    ID : 0
    Format : MPEG-4 Visual
    Format profile : Advanced Simple@L5
    Format settings, BVOP : 2
    Format settings, QPel : No
    Format settings, GMC : No warppoints
    Format settings, Matrix : Default (MPEG)
    Codec ID : XVID
    Codec ID/Hint : XviD
    Duration : 1h 30mn
    Bit rate : 1 133 Kbps
    Width : 688 pixels
    Height : 384 pixels
    Display aspect ratio : 16:9
    Frame rate : 23.976 fps
    Color space : YUV
    Chroma subsampling : 4:2:0
    Bit depth : 8 bits
    Scan type : Progressive
    Compression mode : Lossy
    Bits/(Pixel*Frame) : 0.179
    Stream size : 736 MiB (100%)
    Writing library : XviD 1.2.1 (UTC 2008-12-04)
    ID : 1
    Format : MPEG Audio
    Format version : Version 1
    Format profile : Layer 3
    Codec ID : 55
    Codec ID/Hint : MP3
    Duration : 4s 864ms
    Source duration : 4s 859ms
    Bit rate mode : Constant
    Bit rate : 128 Kbps
    Channel(s) : 2 channels
    Sampling rate : 44.1 KHz
    Compression mode : Lossy
    Stream size : 76.0 KiB (0%)
    Alignment : Split accross interleaves
    Interleave, duration : 51426 ms (1 233.00 video frames)
    Interleave, preload duration : 500 ms
    Writing library : LAME3.99.5


    Download .torrent

    Download free and at maximum speed!

    How to Download? · What is a torrent? · Ratings and Limitations

    The site does not extend and does not store electronic(digital) versions of products, and only gives access to a reference catalogue created by users on torrent-files which contain only lists of the hash-sums, the earnest entreaty, with complaints(abuse) to access directly to the user. Files for an exchange on tracker are given by users of a site, and the administration does not bear the responsibility for their maintenance. The request to not fill in the files protected by copyrights, and also files of the illegal maintenance!

    [Profile] [PM]
    Display posts from previous:    
    Reply to topic

    The time now is: Today 21:09

    All times are GMT + 3 Hours

    You cannot post new topics in this forum
    You cannot reply to topics in this forum
    You cannot edit your posts in this forum
    You cannot delete your posts in this forum
    You cannot vote in polls in this forum
    You cannot attach files in this forum
    You cannot download files in this forum