BitTorrentTracker PerecTracker.org
BitTorrentTracker PerecTracker.org
    
Регистрация  ·  Вход
 
 · 
Забыли пароль?

  • Мистер Воларе: любовь и музыка Доменико Модуньо / Полёт – Великая история Доменико Модуньо / Volare - La grande storia di Domenico Modugno (Риккардо Милани / Riccardo Milani) [2013, Италия, биография, SATRip] MVO (ТВ XXI) + Original Ita

    Ответить на тему
     
    Автор Сообщение

    Light

    Создавать темы 18-Май-2015 22:54

           

    [Цитировать]

    Мистер Воларе: любовь и музыка Доменико Модуньо / Полёт – Великая история Доменико Модуньо / Volare - La grande storia di Domenico Modugno
    Страна: Италия
    Жанр: биография
    Год выпуска: 2013
    Продолжительность: 01:49:41+01:36:33
    Перевод: Профессиональный (многоголосый закадровый) ТВ XXI
    Cубтитры: нет
    Оригинальная аудиодорожка: итальянский
    Режиссер: Риккардо Милани / Riccardo Milani
    В ролях: Беппе Фиорелло
    Касия Смутняк
    Алессандро Тибери
    Антонио Д’Осилио
    Diego D'Elia
    Федерика Де Кола
    Массимилиано Галло
    Роберто Де Франческо
    Gabriele Cirilli
    Армандо Де Рацца
    Описание: "Volare" - название песни, написанной Доменико Модуньо. Впервые она была представлена в 1958 году на Фестивале песни в Сан-Ремо, на котором победила. С тех пор она известна во всем мире. Фильм рассказывает о том, как жизнерадостный и веселый Миммо из апулийской деревеньки стал Доменико Модуньо, выдающимся итальянским певцом.
    Сэмпл: http://multi-up.com/1048976
    Качество видео: SATRip
    Формат видео: AVI
    Видео: MPEG4, XviD, 688x400 (16/9), 25.000 fps, 1 628 Kbps (0.237 bit/pixel) - 1 серия, 1 885 Kbps (0.274 bit/pixel) - 2 серия
    Аудио: MP3, 48.0 KHz, 2 ch, 128 Kbps, CBR - русский
    Аудио 2: MP3, 48.0 KHz, 2 ch, 128 Kbps, CBR - итальянский

    MediaInfo

    Общее
    Полное имя : K:\Мистер Воларе - великая история Доменико Модуньо 1с..avi
    Формат : AVI
    Формат/Информация : Audio Video Interleave
    Размер файла : 1,45 Гбайт
    Продолжительность : 1 ч. 49 м.
    Общий поток : 1899 Кбит/сек
    Название фильма : Мистер Воларе: любовь и музыка Доменико Модуньо / Полёт – Великая история Доменико Модуньо / Volare - La grande storia di Domenico Modugno (2013)
    Программа кодирования : VirtualDubMod 1.5.10.2 (build 2540/release)
    Правообладатель : miha2154
    Видео
    Идентификатор : 0
    Формат : MPEG-4 Visual
    Профиль формата : Advanced Simple@L5
    Параметр BVOP формата : 1
    Параметр QPel формата : Нет
    Параметр GMC формата : Без точки перехода
    Параметр матрицы формата : Выборочная
    Идентификатор кодека : XVID
    Идентификатор кодека/Подсказка : XviD
    Продолжительность : 1 ч. 49 м.
    Битрейт : 1628 Кбит/сек
    Ширина : 688 пикселей
    Высота : 400 пикселей
    Соотношение сторон : 1,720
    Частота кадров : 25,000 кадров/сек
    Цветовое пространство : YUV
    Субдискретизация насыщенности : 4:2:0
    Битовая глубина : 8 бит
    Тип развёртки : Прогрессивная
    Метод сжатия : С потерями
    Бит/(Пиксели*Кадры) : 0.237
    Размер потока : 1,25 Гбайт (86%)
    Библиотека кодирования : XviD 65
    Аудио #1
    Идентификатор : 1
    Формат : MPEG Audio
    Версия формата : Version 1
    Профиль формата : Layer 3
    Режим : Joint stereo
    Расширение режима : MS Stereo
    Идентификатор кодека : 55
    Идентификатор кодека/Подсказка : MP3
    Продолжительность : 1 ч. 49 м.
    Вид битрейта : Постоянный
    Битрейт : 128 Кбит/сек
    Каналы : 2 канала
    Частота : 48,0 КГц
    Метод сжатия : С потерями
    Размер потока : 100 Мбайт (7%)
    Выравнивание : Соединение по промежуткам
    Продолжительность промежутка : 40 мс. (1,00 видеокадр)
    Время предзагрузки промежутка : 504 мс.
    Заголовок : Профессиональный (многоголосый закадровый) ТВXXI
    Аудио #2
    Идентификатор : 2
    Формат : MPEG Audio
    Версия формата : Version 1
    Профиль формата : Layer 3
    Режим : Joint stereo
    Расширение режима : MS Stereo
    Идентификатор кодека : 55
    Идентификатор кодека/Подсказка : MP3
    Продолжительность : 1 ч. 49 м.
    Вид битрейта : Постоянный
    Битрейт : 128 Кбит/сек
    Каналы : 2 канала

    Скриншоты



    Скачать .torrent

    Скачать торрент-файл бесплатно и на максимальной скорости!

    Как скачивать? · Что такое торрент? · Рейтинг и ограничения

    !ВНИМАНИЕ!
    Сайт не распространяет и не хранит электронные версии произведений, а занимается лишь лишь предоставлением доступа к создаваемому пользователями каталогу ссылок на торрент-файлы, которые содержат только списки хеш-сумм, убедительная просьба с жалобами обращаться напрямую к пользователю. Файлы для обмена на трекере предоставлены пользователями сайта, и администрация не несёт ответственности за их содержание. Просьба не заливать файлы, защищенные авторскими правами, а также файлы нелегального содержания!


    _________________
    [Профиль] [ЛС]
    Показать сообщения:    
    Ответить на тему

    Текущее время: Сегодня, в 08:57

    Часовой пояс: GMT + 2



    Вы не можете начинать темы
    Вы не можете отвечать на сообщения
    Вы не можете редактировать свои сообщения
    Вы не можете удалять свои сообщения
    Вы не можете голосовать в опросах
    Вы не можете прикреплять файлы к сообщениям
    Вы не можете скачивать файлы