Register  ·  Log in
Forgot password?

  • Двое в пустыне (Алты Артыков) [1968, драма, VHSRip]

    Reply to topic
    Author Message


    Post 18-May-2015 02:54



    Двое в пустыне
    Жанр: драма
    Год выпуска: 1968
    Продолжительность: 01:03:01
    Режиссёр: Алты Артыков
    В ролях: Танрыкули Сеиткулиев, Сетдар Караджаев
    Описание: Действие происходит в 1920-е годы в Средней Азии. Красноармеец и пленный басмач заблудились в пустыне...
    Доп. информация: Ашхабадская студия ТВ
    Качество видео: VHSRip
    Формат видео: AVI
    Видео: 624x464 (1.34:1),25 fps,XviD build 50,1747 kbps avg,0.24 bit/pixel.
    Аудио: 44.100 kHz,MPEG Layer 3,2 ch,136.59 kbps avg.


    Полное имя : E:\Двое в пустыне.1968.avi
    Формат : AVI
    Формат/Информация : Audio Video Interleave
    Размер файла : 855 Мбайт
    Продолжительность : 1 ч. 3 м.
    Общий поток : 1897 Кбит/сек
    Программа кодирования : MEncoder Sherpya-SVN-r32492-4.2.5
    Библиотека кодирования : MPlayer
    Идентификатор : 0
    Формат : MPEG-4 Visual
    Профиль формата : Simple@L3
    Параметр BVOP формата : Нет
    Параметр QPel формата : Нет
    Параметр GMC формата : Без точки перехода
    Параметр матрицы формата : Default (H.263)
    Идентификатор кодека : XVID
    Идентификатор кодека/Подсказка : XviD
    Продолжительность : 1 ч. 3 м.
    Битрейт : 1748 Кбит/сек
    Ширина : 624 пикселя
    Высота : 464 пикселя
    Соотношение сторон : 4:3
    Частота кадров : 25,000 кадров/сек
    Цветовое пространство : YUV
    Субдискретизация насыщенности : 4:2:0
    Битовая глубина : 8 бит
    Тип развёртки : Прогрессивная
    Метод сжатия : С потерями
    Бит/(Пиксели*Кадры) : 0.241
    Размер потока : 788 Мбайт (92%)
    Библиотека кодирования : XviD 1.2.1 (UTC 2008-12-04)
    Идентификатор : 1
    Формат : MPEG Audio
    Версия формата : Version 1
    Профиль формата : Layer 3
    Режим : Joint stereo
    Расширение режима : MS Stereo
    Идентификатор кодека : 55
    Идентификатор кодека/Подсказка : MP3
    Продолжительность : 1 ч. 3 м.
    Вид битрейта : Постоянный
    Битрейт : 32,0 Кбит/сек
    Каналы : 2 канала
    Частота : 44,1 КГц
    Метод сжатия : С потерями
    Размер потока : 61,6 Мбайт (7%)
    Выравнивание : Соединение по промежуткам
    Продолжительность промежутка : 26 мс. (0,65 видеокадр)
    Время предзагрузки промежутка : 121 мс.
    Библиотека кодирования : LAME3.98.4


    Download .torrent

    Download free and at maximum speed!

    How to Download? · What is a torrent? · Ratings and Limitations

    The site does not extend and does not store electronic(digital) versions of products, and only gives access to a reference catalogue created by users on torrent-files which contain only lists of the hash-sums, the earnest entreaty, with complaints(abuse) to access directly to the user. Files for an exchange on tracker are given by users of a site, and the administration does not bear the responsibility for their maintenance. The request to not fill in the files protected by copyrights, and also files of the illegal maintenance!

    [Profile] [PM]
    Display posts from previous:    
    Reply to topic

    The time now is: Today 08:28

    All times are GMT + 3 Hours

    You cannot post new topics in this forum
    You cannot reply to topics in this forum
    You cannot edit your posts in this forum
    You cannot delete your posts in this forum
    You cannot vote in polls in this forum
    You cannot attach files in this forum
    You cannot download files in this forum