BitTorrentTracker PerecTracker.org
BitTorrentTracker PerecTracker.org
    
Регистрация  ·  Вход
 
 · 
Забыли пароль?

  • Лебединая труба / Труба для лебедя / Лебедь-трубач / The Trumpet of the Swan (Тэрри Носс, Ричард Рич / Terry Noss, Richard Rich) [2001 г., мультфильм, фантастика, боевик, комедия, семейный, DVDRip] AVO (Карповский)

    Ответить на тему
     
    Автор Сообщение

    rechyn

    Создавать темы 18-Май-2015 01:54

           

    [Цитировать]

    Лебединая труба / Труба для лебедя / Лебедь-трубач / The Trumpet of the Swan
    Страна: США
    Жанр: мультфильм, мюзикл, драма
    Продолжительность: 01:11:43
    Год выпуска: 2001
    Перевод: Авторский (одноголосый закадровый) Антон Карповский
    Русские субтитры: нет
    Режиссёр: Тэрри Носс, Ричард Рич / Terry Noss, Richard Rich
    Роли озвучивали: Джейсон Александр, Мэри Стинберген, Риз Уизерспун, Сет Грин, Кэрол Бёрнетт, Джо Мантенья, Сэм Гифальди, Ди Брэдли Бейкер, Мелисса Дисней, Кэт Сауси
    Описание: Фильм рассказывает историю Луиса, молодого лебедя, который не может трубить. На самом деле он вообще не может издать ни одного звука, В итоге он попадает в трудное положение, когда пытается ухаживать за Сереной, самой прекрасной из всех лебедей, которые встречались ему в жизни. С помощью отца Луис учится играть на трубе и многому другому.

    Качество: DVDRip
    Формат: AVI
    Видео: XviD, 688x384 (1.79:1), 25 fps, XviD build 73 ~1234 kbps avg, 0.19 bit/pixel
    Аудио: AC3, 48 kHz, AC3 Dolby Digital, 2/0 (L,R) ch, ~192 kbps
    Субтитры: отсутствуют

    Доп.инфо

    за дорогу Карповского спасибо prianik и grandmajor

    Подробные технические данные

    Полное имя : Лебединая труба.aviФормат : AVIФормат/Информация : Audio Video InterleaveРазмер файла : 737 МбайтПродолжительность : 1 ч. 11 м.Общий поток : 1436 Кбит/секПрограмма кодирования : VirtualDubMod 1.5.10.2 (build 2540/release)
    ВидеоИдентификатор : 0Формат : MPEG-4 VisualПрофиль формата : Advanced Simple@L5Параметр BVOP формата : 1Параметр QPel формата : НетПараметр GMC формата : Без точки переходаПараметр матрицы формата : ВыборочнаяИдентификатор кодека : XVIDИдентификатор кодека/Подсказка : XviDПродолжительность : 1 ч. 11 м.Битрейт : 1235 Кбит/секШирина : 688 пикселейВысота : 384 пикселяСоотношение сторон : 16:9Частота кадров : 25,000 кадров/секЦветовое пространство : YUVСубдискретизация насыщенности : 4:2:0Битовая глубина : 8 битТип развёртки : ПрогрессивнаяМетод сжатия : С потерямиБит/(Пиксели*Кадры) : 0.187Размер потока : 633 Мбайт (86%)Библиотека кодирования : XviD 73
    АудиоИдентификатор : 1Формат : AC-3Формат/Информация : Audio Coding 3Расширение режима : CM (complete main)Параметр Endianness формата : BigИдентификатор кодека : 2000Продолжительность : 1 ч. 11 м.Вид битрейта : ПостоянныйБитрейт : 192 Кбит/секКаналы : 2 каналаРасположение каналов : Front: L RЧастота : 48,0 КГцБитовая глубина : 16 битМетод сжатия : С потерямиРазмер потока : 98,5 Мбайт (13%)Выравнивание : Разделение по промежуткамПродолжительность промежутка : 40 мс. (1,00 видеокадр)Время предзагрузки промежутка : 500 мс.

    Скриншоты

    Скачать .torrent

    Скачать торрент-файл бесплатно и на максимальной скорости!

    Как скачивать? · Что такое торрент? · Рейтинг и ограничения

    !ВНИМАНИЕ!
    Сайт не распространяет и не хранит электронные версии произведений, а занимается лишь лишь предоставлением доступа к создаваемому пользователями каталогу ссылок на торрент-файлы, которые содержат только списки хеш-сумм, убедительная просьба с жалобами обращаться напрямую к пользователю. Файлы для обмена на трекере предоставлены пользователями сайта, и администрация не несёт ответственности за их содержание. Просьба не заливать файлы, защищенные авторскими правами, а также файлы нелегального содержания!


    _________________
    [Профиль] [ЛС]
    Показать сообщения:    
    Ответить на тему

    Текущее время: Сегодня, в 23:58

    Часовой пояс: GMT + 2



    Вы не можете начинать темы
    Вы не можете отвечать на сообщения
    Вы не можете редактировать свои сообщения
    Вы не можете удалять свои сообщения
    Вы не можете голосовать в опросах
    Вы не можете прикреплять файлы к сообщениям
    Вы не можете скачивать файлы