BitTorrentTracker PerecTracker.org
BitTorrentTracker PerecTracker.org
    
Регистрация  ·  Вход
 
 · 
Забыли пароль?

  • Настоящая любовь (Сергей Попов) [2012 г., комедия, мелодрама, HDTVRip-AVC]

    Ответить на тему
     
    Автор Сообщение

    rechyn

    Создавать темы 17-Май-2015 21:42

           

    [Цитировать]

    -Настоящая любовь--Год выпуска: 2012Жанр: комедия, мелодрамаПродолжительность: 01:33:42--Режиссер:Сергей Попов-В ролях:Илья Носков, Кристина Асмус, Анна Ардова, Ольга Тумайкина, Виталий Хаев, Тимофей Трибунцев, Артур Ваха, Анна Уколова, Алексей Гришин, Дарья Чаруша и другие.-Описание:
    Состоятельный адвокат Андрей и начинающая журналистка Лена - каждый по-своему несчастлив в личной жизни. Разведенный Андрей инкогнито ищет настоящую любовь, переодеваясь в нищего, потому что убежден: деньги портят чувства. А Лена тем временем полностью разочаровалась в мужчинах. Теперь ее цель - получить хорошую работу в газете, и в поисках сенсации она решает вывести на чистую воду брачных аферистов. Судьба сводит их вместе…
    --Дополнительная информация:-
    -Сэмпл Рип совместим с бытовыми DVD-проигрывателями.--Качество видео: HDTVRip-AVC (Исходник: HDTV 1080i )
    Формат видео: MKV
    Видео: AVC (x264), 1044x588 (9:6), 25 fps, ~2943 kbps avg, 0.192 bit/pixel
    Аудио: 48 kHz, AC3 Dolby Digital, 2/0 (L,R) ch, 384 kbps-Скриншоты


    Название

    MediaInfo/log

    log

    raw [info]: 1044x588p 1:1 @ 25/1 fps (cfr)
    x264 [info]: using SAR=1/1
    x264 [info]: using cpu capabilities: MMX2 SSE2Fast SSSE3 SSE4.2 AVX
    x264 [info]: profile High, level 4.1
    x264 [info]: frame I:1129 Avg QP:20.12 size: 73929
    x264 [info]: frame P:31112 Avg QP:21.25 size: 29138
    x264 [info]: frame B:108319 Avg QP:22.56 size: 9956
    x264 [info]: consecutive B-frames: 1.2% 1.8% 3.8% 43.0% 16.1% 31.8% 1.5% 0.7% 0.1% 0.0% 0.1% 0.0% 0.0% 0.0% 0.0% 0.0% 0.0%
    x264 [info]: mb I I16..4: 4.3% 78.6% 17.2%
    x264 [info]: mb P I16..4: 1.3% 12.4% 1.6% P16..4: 46.3% 24.9% 11.7% 0.0% 0.0% skip: 1.7%
    x264 [info]: mb B I16..4: 0.1% 1.2% 0.1% B16..8: 42.7% 8.8% 2.1% direct: 7.5% skip:37.4% L0:39.9% L1:49.8% BI:10.4%
    x264 [info]: final ratefactor: 20.73
    x264 [info]: 8x8 transform intra:80.7% inter:63.8%
    x264 [info]: direct mvs spatial:100.0% temporal:0.0%
    x264 [info]: coded y,uvDC,uvAC intra: 88.9% 88.3% 57.1% inter: 28.7% 33.6% 10.0%
    x264 [info]: i16 v,h,dc,p: 31% 15% 6% 47%
    x264 [info]: i8 v,h,dc,ddl,ddr,vr,hd,vl,hu: 11% 10% 6% 9% 14% 14% 13% 12% 12%
    x264 [info]: i4 v,h,dc,ddl,ddr,vr,hd,vl,hu: 13% 16% 3% 8% 13% 13% 13% 10% 11%
    x264 [info]: i8c dc,h,v,p: 35% 22% 25% 18%
    x264 [info]: Weighted P-Frames: Y:1.5% UV:1.0%
    x264 [info]: ref P L0: 50.6% 13.0% 16.3% 5.4% 4.3% 3.5% 3.0% 2.0% 1.9% 0.1% 0.0%
    x264 [info]: ref B L0: 84.3% 8.1% 3.2% 1.5% 1.2% 0.9% 0.6% 0.2%
    x264 [info]: ref B L1: 95.1% 4.9%
    x264 [info]: kb/s:2943.13
    General
    Unique ID : 247039395305134934054631329412467943969 (0xB9DA0E90172F105A8377F4EA6F406A21)
    Complete name :\Nastoyaschaya_lubov_(2012).HDTVRip-AVC.ac3.[All.Films][RG].mkv
    Format : Matroska
    Format version : Version 4 / Version 2
    File size : 2.18 GiB
    Duration : 1h 33mn
    Overall bit rate : 3 329 Kbps
    Movie name : Настоящая любовь (2012) HDTVRip-AVC | <VIRUS> [All.Films][RG][perectracker.org]
    Encoded date : UTC 2015-05-17 14:40:48
    Writing application : mkvmerge v7.5.0 ('Glass Culture') 32bit built on Jan 10 2015 09:41:31
    Writing library : libebml v1.3.1 + libmatroska v1.4.2
    DURATION : 01:33:42.304000000
    NUMBER_OF_FRAMES : 175697
    NUMBER_OF_BYTES : 269870592
    _STATISTICS_WRITING_APP : mkvmerge v7.5.0 ('Glass Culture') 32bit built on Jan 10 2015 09:41:31
    _STATISTICS_WRITING_DATE_UT : 2015-05-17 14:40:48
    _STATISTICS_TAGS : BPS DURATION NUMBER_OF_FRAMES NUMBER_OF_BYTES
    Video
    ID : 1
    Format : AVC
    Format/Info : Advanced Video Codec
    Format profile : High@L4.1
    Format settings, CABAC : Yes
    Format settings, ReFrames : 9 frames
    Codec ID : V_MPEG4/ISO/AVC
    Duration : 1h 33mn
    Bit rate : 2 943 Kbps
    Width : 1 044 pixels
    Height : 588 pixels
    Display aspect ratio : 16:9
    Frame rate mode : Constant
    Frame rate : 25.000 fps
    Color space : YUV
    Chroma subsampling : 4:2:0
    Bit depth : 8 bits
    Scan type : Progressive
    Bits/(Pixel*Frame) : 0.192
    Stream size : 1.88 GiB (86%)
    Writing library : x264 core 144 r2525 40bb568
    Encoding settings : cabac=1 / ref=9 / deblock=1:-2:-1 / analyse=0x3:0x113 / me=umh / subme=9 / psy=1 / psy_rd=1.00:0.05 / mixed_ref=1 / me_range=42 / chroma_me=1 / trellis=2 / 8x8dct=1 / cqm=0 / deadzone=21,11 / fast_pskip=0 / chroma_qp_offset=-3 / threads=6 / lookahead_threads=1 / sliced_threads=0 / nr=0 / decimate=0 / interlaced=0 / bluray_compat=0 / constrained_intra=0 / bframes=16 / b_pyramid=2 / b_adapt=2 / b_bias=0 / direct=3 / weightb=1 / open_gop=0 / weightp=2 / keyint=240 / keyint_min=24 / scenecut=40 / intra_refresh=0 / rc_lookahead=60 / rc=2pass / mbtree=0 / bitrate=2943 / ratetol=1.0 / qcomp=0.60 / qpmin=10 / qpmax=51 / qpstep=4 / cplxblur=20.0 / qblur=0.5 / vbv_maxrate=50000 / vbv_bufsize=62500 / nal_hrd=none / filler=0 / ip_ratio=1.40 / pb_ratio=1.30 / aq=3:1.00
    Default : Yes
    Forced : No
    Audio
    ID : 2
    Format : AC-3
    Format/Info : Audio Coding 3
    Mode extension : CM (complete main)
    Format settings, Endianness : Big
    Codec ID : A_AC3
    Duration : 1h 33mn
    Bit rate mode : Constant
    Bit rate : 384 Kbps
    Channel(s) : 2 channels
    Channel positions : Front: L R
    Sampling rate : 48.0 KHz
    Bit depth : 16 bits
    Compression mode : Lossy
    Stream size : 257 MiB (12%)
    Language : Russian
    Default : Yes
    Forced : No
    FAQ по просмотру MKV/h.264/AAC
  • Смогу ли я запустить AVC фильм на своём компьютере?
  • Сампл из раздачи не воспроизводится/тормозит или отсутствует звук/изображение. Что делать?
  • Что такое H.264/AVC и зачем он нужен?
  • Что за дурацкий формат .MKV?
  • Почему MKV? Чем AVI хуже?
  • Не могу переключить/включить/выключить аудио/видео дорожки и/или субтитры. Что делать?
  • Как сделать так, чтобы по умолчанию при просмотре MKV файлов нужные/ненужные субтитры были включены/выключены, и/или сразу проигрывалась дорожка на нужном мне языке?
  • Будут ли фильмы в таком формате проигрываться на бытовых плеерах без компьютера?
  • Проигрываю фильм, а картинка очень сильно отличается от скринов/бледная/перенасыщенная. Что не так?
  • Можно ли сконвертировать AVC в DVD?
  • Почему сплюснута картинка / в характеристиках видео указано два разрешения / что такое анаморфное разрешение?
  • Зачем релизёры обманывают качающих и пишут в заголовке 720p/1080p, а на самом деле раздают видеоматериалы в непонятных разрешениях?
  • Можно ли вывести многоканальный FLAC/AAC-звук на внешний ресивер?
  • У меня 2-канальная акустика/стереонаушники. При просмотре видео почти не слышно/совсем не слышно речь/разговоры, играют только фоновые звуки. Что делать?
  • У меня стоит CoreAVC версии 1.9.5 или младше. При воспроизведении картинка рассыпается на квадраты и разноцветные пятна. Кривой рип?
  • Всё прочитал(-а), решения своей проблемы не нашёл(-шла)/не смог(-ла) разобраться. Что делать?
    Скачать .torrent

    Скачать торрент-файл бесплатно и на максимальной скорости!

    Как скачивать? · Что такое торрент? · Рейтинг и ограничения

    !ВНИМАНИЕ!
    Сайт не распространяет и не хранит электронные версии произведений, а занимается лишь лишь предоставлением доступа к создаваемому пользователями каталогу ссылок на торрент-файлы, которые содержат только списки хеш-сумм, убедительная просьба с жалобами обращаться напрямую к пользователю. Файлы для обмена на трекере предоставлены пользователями сайта, и администрация не несёт ответственности за их содержание. Просьба не заливать файлы, защищенные авторскими правами, а также файлы нелегального содержания!


  • _________________
    [Профиль] [ЛС]
    Показать сообщения:    
    Ответить на тему

    Текущее время: Сегодня, в 15:43

    Часовой пояс: GMT + 2



    Вы не можете начинать темы
    Вы не можете отвечать на сообщения
    Вы не можете редактировать свои сообщения
    Вы не можете удалять свои сообщения
    Вы не можете голосовать в опросах
    Вы не можете прикреплять файлы к сообщениям
    Вы не можете скачивать файлы