BitTorrentTracker PerecTracker.org
BitTorrentTracker PerecTracker.org
    
Регистрация  ·  Вход
 
 · 
Забыли пароль?

  • Карандаш на льду (Владимир Немоляев) [1948, Комедия, SATRip]

    Ответить на тему
     
    Автор Сообщение

    Light

    Создавать темы 17-Май-2015 17:30

           

    [Цитировать]

    Карандаш на льду
    Жанр: Комедия
    Год выпуска: 1948
    Продолжительность: 00:22:12
    Режиссёр: Владимир Немоляев
    Композитор: Сигизмунд Кац
    В ролях: Михаил Румянцев(озвучивает Эраст Гарин), Людмила Целиковская, Евгений Леонов (небольшой эпизод - дворник в начале фильма)
    Описание: Короткометражная спортивная комедия, это один из первых наших стерео (3D) игровых фильмов. Показан матч женских команд по хоккею с мячом. Карандаш заменяет получившего травму вратаря Клаву, Людмила Целиковская играет роль Наташи - игрока одной из команд.
    Доп. информация: Фильм взят с Кинозал ТВ:, спасибо Человек91:. Я обрезал чёрные поля по краям. Кадр квадратный, первые стереофильмы имели вертикальный кадр, обычный кадр 4/3 делили пополам вертикально на левый и правый до 2/3. Здесь, вероятно, была ещё и обрезка кадра 2/3 до квадрата для приближения его к 4/3.
    Семпл: http://sendfile.su/1118915
    Качество видео: SATRip
    Формат видео: AVI
    Видео: Xvid 688x688 25fps 1741kbps
    Аудио: MP3 44100Hz stereo 128kbps

    MediaInfo

    General
    Complete name : D:\Торрент\Мои раздачи\Фильмы\Карандаш на льду - 1947\Карандаш на льду - 1947.avi
    Format : AVI
    Format/Info : Audio Video Interleave
    File size : 298 MiB
    Duration : 22mn 11s
    Overall bit rate : 1 879 Kbps
    Writing application : VirtualDubMod 1.5.10.2 (build 2540/release)
    Writing library : VirtualDubMod build 2540/release
    Video
    ID : 0
    Format : MPEG-4 Visual
    Format profile : Advanced Simple@L5
    Format settings, BVOP : 3
    Format settings, QPel : Yes
    Format settings, GMC : 3 warppoints
    Format settings, Matrix : Default (H.263)
    Muxing mode : Packed bitstream
    Codec ID : XVID
    Codec ID/Hint : XviD
    Duration : 22mn 11s
    Bit rate : 1 741 Kbps
    Width : 688 pixels
    Height : 688 pixels
    Display aspect ratio : 1.000
    Frame rate : 25.000 fps
    Color space : YUV
    Chroma subsampling : 4:2:0
    Bit depth : 8 bits
    Scan type : Progressive
    Compression mode : Lossy
    Bits/(Pixel*Frame) : 0.147
    Stream size : 276 MiB (93%)
    Writing library : XviD 1.2.0.dev47 (UTC 2006-11-01)
    Audio
    ID : 1
    Format : MPEG Audio
    Format version : Version 1
    Format profile : Layer 3
    Codec ID : 55
    Codec ID/Hint : MP3
    Duration : 22mn 11s
    Bit rate mode : Constant
    Bit rate : 128 Kbps
    Channel(s) : 2 channels
    Sampling rate : 44.1 KHz
    Compression mode : Lossy
    Stream size : 20.3 MiB (7%)
    Alignment : Split accross interleaves
    Interleave, duration : 40 ms (1.00 video frame)
    Interleave, preload duration : 500 ms
    Writing library : LAME3.99r
    Encoding settings : -m s -V 4 -q 1 -lowpass 17 -b 128

    Скриншоты

    Скачать .torrent

    Скачать торрент-файл бесплатно и на максимальной скорости!

    Как скачивать? · Что такое торрент? · Рейтинг и ограничения

    !ВНИМАНИЕ!
    Сайт не распространяет и не хранит электронные версии произведений, а занимается лишь лишь предоставлением доступа к создаваемому пользователями каталогу ссылок на торрент-файлы, которые содержат только списки хеш-сумм, убедительная просьба с жалобами обращаться напрямую к пользователю. Файлы для обмена на трекере предоставлены пользователями сайта, и администрация не несёт ответственности за их содержание. Просьба не заливать файлы, защищенные авторскими правами, а также файлы нелегального содержания!


    _________________
    [Профиль] [ЛС]
    Показать сообщения:    
    Ответить на тему

    Текущее время: Сегодня, в 04:09

    Часовой пояс: GMT + 2



    Вы не можете начинать темы
    Вы не можете отвечать на сообщения
    Вы не можете редактировать свои сообщения
    Вы не можете удалять свои сообщения
    Вы не можете голосовать в опросах
    Вы не можете прикреплять файлы к сообщениям
    Вы не можете скачивать файлы