BitTorrentTracker PerecTracker.org
BitTorrentTracker PerecTracker.org
    
Регистрация  ·  Вход
 
 · 
Забыли пароль?

  • Призраки покидают вершины (Эразм Карамян, Степан Кеворков) [1955, приключения, VHSRip]

    Ответить на тему
     
    Автор Сообщение

    Light

    Создавать темы 17-Май-2015 13:18

           

    [Цитировать]

    Призраки покидают вершины
    Жанр: приключения
    Год выпуска: 1955
    Продолжительность: 01:31:51
    Режиссёр: Эразм Карамян, Степан Кеворков
    В ролях: Сос Сосян, Виолетта Ютуджян, Артём Карапетян, Грачья Нерсесян, Ваграм Папазян, Давид Малян, Леонид Кмит, Всеволод Тягушев, Андрей Файт, Г. Яковлев, Ольга Гулазян
    Описание: Для восхождения на гору Камир-Сар, на неприступной вершине которой по заключению молодого ученого Арташеса Маляна находится редкое месторождение ртути и серебра, несмотря на противодействие маститого профессора Даниэль-бека, организуется экспедиция во главе с Маляном. Информация о смелом походе советских ученых доходит до Альвареца да Кортеца, хозяина одного из крупнейших европейских химических концернов. В молодости он побывал на этой вершине и, чтобы скрыть обнаруженные металлы, сбросил русского ученого Шелагина в пропасть, заставив молчать Даниэль-бека. Иностранная разведка получает задание сорвать экспедицию…
    Доп. информация: Ереванская киностудия.
    Премьера: 31 июля 1955 (Москва)

    Семпл: https://www.sendspace.com/file/z2sztc
    Качество видео: VHSRip
    Формат видео: AVI
    Видео: 640x480 (1.33:1),25 fps,XviD build 50,1670 kbps avg,0.22 bit/pixel.
    Аудио: 44.100 kHz,MPEG Layer 3,2 ch,128.00 kbps avg.

    MediaInfo

    Общее
    Полное имя : E:\Призраки покидают вершины.avi
    Формат : AVI
    Формат/Информация : Audio Video Interleave
    Профиль формата : OpenDML
    Размер файла : 1,16 Гбайт
    Продолжительность : 1 ч. 31 м.
    Общий поток : 1805 Кбит/сек
    Программа кодирования : Lavf52.93.0
    Видео
    Идентификатор : 0
    Формат : xvid
    Идентификатор кодека : xvid
    Продолжительность : 1 ч. 31 м.
    Битрейт : 1662 Кбит/сек
    Ширина : 640 пикселей
    Высота : 480 пикселей
    Соотношение сторон : 5:4
    Частота кадров : 25,000 кадров/сек
    Бит/(Пиксели*Кадры) : 0.216
    Размер потока : 1,07 Гбайт (92%)
    Аудио
    Идентификатор : 1
    Формат : MPEG Audio
    Версия формата : Version 1
    Профиль формата : Layer 3
    Режим : Joint stereo
    Расширение режима : MS Stereo
    Идентификатор кодека : 55
    Идентификатор кодека/Подсказка : MP3
    Продолжительность : 1 ч. 31 м.
    Вид битрейта : Постоянный
    Битрейт : 128 Кбит/сек
    Каналы : 2 канала
    Частота : 44,1 КГц
    Метод сжатия : С потерями
    Размер потока : 84,1 Мбайт (7%)
    Выравнивание : Соединение по промежуткам
    Продолжительность промежутка : 26 мс. (0,65 видеокадр)
    Библиотека кодирования : LAME3.98.4ЄЄЄЄЄЄЄЄЄЄ

    Скриншоты

    Скачать .torrent

    Скачать торрент-файл бесплатно и на максимальной скорости!

    Как скачивать? · Что такое торрент? · Рейтинг и ограничения

    !ВНИМАНИЕ!
    Сайт не распространяет и не хранит электронные версии произведений, а занимается лишь лишь предоставлением доступа к создаваемому пользователями каталогу ссылок на торрент-файлы, которые содержат только списки хеш-сумм, убедительная просьба с жалобами обращаться напрямую к пользователю. Файлы для обмена на трекере предоставлены пользователями сайта, и администрация не несёт ответственности за их содержание. Просьба не заливать файлы, защищенные авторскими правами, а также файлы нелегального содержания!


    _________________
    [Профиль] [ЛС]
    Показать сообщения:    
    Ответить на тему

    Текущее время: Сегодня, в 06:40

    Часовой пояс: GMT + 2



    Вы не можете начинать темы
    Вы не можете отвечать на сообщения
    Вы не можете редактировать свои сообщения
    Вы не можете удалять свои сообщения
    Вы не можете голосовать в опросах
    Вы не можете прикреплять файлы к сообщениям
    Вы не можете скачивать файлы