BitTorrentTracker PerecTracker.org
BitTorrentTracker PerecTracker.org
    
Регистрация  ·  Вход
 
 · 
Забыли пароль?

  • Реальная белка / The Nut Job (Питер Лепениотис / Peter Lepeniotis) [2013 г., мультфильм, комедия, приключения, семейный, BDRip] DUB

    Ответить на тему
     
    Автор Сообщение

    rechyn

    Создавать темы 17-Май-2015 00:42

           

    [Цитировать]

    Реальная белка
    The Nut Job
    «Береги свои орешки!»Страна: Канада, Корея Южная, США
    Жанр: мультфильм, комедия, приключения, семейный
    Продолжительность: 01:25:54
    Год выпуска: 2013-Перевод : Профессиональный (дублированный)
    Перевод : Любительский (многоголосый закадровый) "BaibaKo"
    Русские субтитры: есть
    Режиссёр: Питер Лепениотис / Peter Lepeniotis-Роли озвучивали: Уилл Арнетт, Брендан Фрейзер, Лиам Нисон, Кэтрин Хайгл, Стивен Лэнг, Майя Рудольф, Джефф Данэм, Гэбриел Иглесиас, Сара Гадон, Джеймс Ранкин, Скотт Яфе, Джо Пинг, Анник Обонсавин, Джули Лемье, Роберт Тинклер, Сай...
    Роли дублировали: Сергей Бурунов, Николай Басков, Дмитрий Назаров, Анна Чиповская, Максим Виторган, Ольга Шелест, Дмитрий Филимонов, Ксения Собчак, AleksandrVoronov (RG Мультфильмы) и др.-Описание: Пытаясь выжить в городе, неразлучные друзья — белка Злюк и крысёнок Бадди натыкаются на магазин, до краёв набитый их любимым лакомством — орехами. Чувствуя, что «мечты сбываются», приятели планируют величайшее ограбление в истории грызунов. Но тут совсем некстати нарисовались бедные родственники из парка — прямо 13 друзей арахиса! Однако им всем невдомёк, что магазин орехов — лишь прикрытие для банды грабителей, которые намерены вырыть туннель под банк и подменить мешки с деньгами на мешки с теми самыми орехами.-Отдельное спасибо следующим людям:
    - Прагматик'у за сборку русских звуковых дорожек под оригинальный видеоряд (US Transfer) в формате DTS-HD MA и сборку ремукса.
    - xfiles за подготовку русских и английских субтитров.-Прагматик:
    • Лицензионный дубляж на несколько порезанную версию мультфильма относительно зарубежной. В связи с чем в центре мультфильма добавлена схожая по смыслу фраза из чистого голоса Baibako вместо отсутсвовавшей в дубляже. В конце пара фраз осталась без перевода.
    • Изначально планов делать этот мультфильм не было в переводе Baibako. Но посмотрев полчаса понял, что делать необходимо: голоса переводчиков наложены очень громко и в мерзкой манере "псевдодубляж", так что оригинального текста не слышно вовсе. Да еще и половина голосов актеров дубляжа не особо удачно подобрана. Так что хоть выделение было ни простым ни легким, пришлось таки выделить и наложить с нормальной паузой запаздывания и громкостью. Да и DTS-HD MA звук лишним никогда не был.
    После чего досмотрел мульт не без удовольствия. Не топ конечно, но ничего – с нормальным переводом не плохой.
    - -Качество: BDRip (исходник - The Nut Job 2013 MPEG-4-AVC BluRay-Remux(1080p)~HDclub)
    Формат: AVI
    Видео: 672x368 (1.83:1), 23.976 fps, XviD 66 ~1 082 kbps avg, 0.18 bit/pixel
    Аудио: 48.0 kHz, MPEG Layer 3, 2/0 (L,R) ch, ~128 kbps |DUB~BD RUS|
    Субтитры: отсутствуют

    MI


    General
    Complete name : D:\incarcare\rip gata\The.Nut.Job.2013.BDRip749[dragomire]_perectracker.org.avi
    Format : AVI
    Format/Info : Audio Video Interleave
    File size : 749 MiB
    Duration : 1h 25mn
    Overall bit rate : 1 220 Kbps
    Writing application : VirtualDubMod 1.5.10.2 (build 2540/release)
    Writing library : VirtualDubMod build 2540/release
    Video
    ID : 0
    Format : MPEG-4 Visual
    Format profile : Advanced Simple@L5
    Format settings, BVOP : 1
    Format settings, QPel : No
    Format settings, GMC : No warppoints
    Format settings, Matrix : Custom
    Codec ID : XVID
    Codec ID/Hint : XviD
    Duration : 1h 25mn
    Bit rate : 1 082 Kbps
    Width : 672 pixels
    Height : 368 pixels
    Display aspect ratio : 1.85:1
    Frame rate : 23.976 fps
    Color space : YUV
    Chroma subsampling : 4:2:0
    Bit depth : 8 bits
    Scan type : Progressive
    Compression mode : Lossy
    Bits/(Pixel*Frame) : 0.183
    Stream size : 665 MiB (89%)
    Writing library : XviD 66
    Audio
    ID : 1
    Format : MPEG Audio
    Format version : Version 1
    Format profile : Layer 3
    Codec ID : 55
    Codec ID/Hint : MP3
    Duration : 1h 25mn
    Bit rate mode : Constant
    Bit rate : 128 Kbps
    Channel(s) : 2 channels
    Sampling rate : 48.0 KHz
    Compression mode : Lossy
    Stream size : 78.7 MiB (10%)
    Alignment : Aligned on interleaves
    Interleave, duration : 42 ms (1.00 video frame)
    Interleave, preload duratio : 504 ms

    Скриншоты

    Скачать .torrent

    Скачать торрент-файл бесплатно и на максимальной скорости!

    Как скачивать? · Что такое торрент? · Рейтинг и ограничения

    !ВНИМАНИЕ!
    Сайт не распространяет и не хранит электронные версии произведений, а занимается лишь лишь предоставлением доступа к создаваемому пользователями каталогу ссылок на торрент-файлы, которые содержат только списки хеш-сумм, убедительная просьба с жалобами обращаться напрямую к пользователю. Файлы для обмена на трекере предоставлены пользователями сайта, и администрация не несёт ответственности за их содержание. Просьба не заливать файлы, защищенные авторскими правами, а также файлы нелегального содержания!


    _________________
    [Профиль] [ЛС]
    Показать сообщения:    
    Ответить на тему

    Текущее время: Сегодня, в 20:37

    Часовой пояс: GMT + 2



    Вы не можете начинать темы
    Вы не можете отвечать на сообщения
    Вы не можете редактировать свои сообщения
    Вы не можете удалять свои сообщения
    Вы не можете голосовать в опросах
    Вы не можете прикреплять файлы к сообщениям
    Вы не можете скачивать файлы