BitTorrentTracker PerecTracker.org
BitTorrentTracker PerecTracker.org
    
Регистрация  ·  Вход
 
 · 
Забыли пароль?

  • В тисках / The squeeze (Терри Джастроу / Terry Jastrow) [2015, США, спорт, драма, DVDRip] VO (Andi)

    Ответить на тему
     
    Автор Сообщение

    rechyn

    Создавать темы 17-Май-2015 00:42

           

    [Цитировать]

    В тисках / The squeeze
    Страна: США
    Жанр: спорт, драма
    Год выпуска: 2015
    Продолжительность: 01:35:03
    Перевод: Одноголосый закадровый (Andi)
    Cубтитры: нет
    Режиссер: Терри Джастроу / Terry Jastrow
    В ролях: Джереми Самптер, Джиллиан Мюррэй, Кристофер Макдональд, Майкл Нури, Джейсон Доринг
    Описание: Огги живет в маленьком городишке, играет в гольф и мечтает о блестящей карьере и больших деньгах. Однажды на его пороге появляется незнакомец и предлагает Огги значительную сумму денег взамен на маленькую услугу: он просто должен играть в гольф и выигрывать. Однако, скоро выясняется, что в этой игре ставка - не просто деньги, а жизнь игрока.
    Доп. информация: Экранизация автобиографии гольфиста Кита Флатта. К фильму, вообще, приложили руку многие видные деятели из мира гольфа. Режиссер Джастроу сам фанат гольфа и автор видео-курса "Гольф для начинающих". В продюсерах - Джек Никлаус - один из выдающихся гольфистов новейшей истории (см. Википедию). Сьемки фильма проходили на территории принадлежащего ему гольф-клуба в Лас-Вегасе.
    Перевод: М.Васильев
    Озвучка: Andi
    IMDB
    Сэмпл
    РГ TRANSLATORS желает приятного просмотра.

    Качество видео: DVDRip
    Формат видео: AVI
    Видео: 1676 Kbps, 720x304 (2.35:1), 23 976 fps, MPEG 4 XviD
    Аудио: 192 Kbps, 48.0 KHz, 16 bits, 2 ch, AC 3

    MediaInfo

    General
    Complete name : C:\Users\master\Desktop\тиски.avi
    Format : AVI
    Format/Info : Audio Video Interleave
    File size : 1.25 GiB
    Duration : 1h 35mn
    Overall bit rate : 1 878 Kbps
    Writing application : VirtualDubMod 1.5.10.2 (build 2540/release)
    Writing library : VirtualDubMod build 2540/release
    Video
    ID : 0
    Format : MPEG-4 Visual
    Format profile : Advanced Simple@L5
    Format settings, BVOP : 2
    Format settings, QPel : No
    Format settings, GMC : No warppoints
    Format settings, Matrix : Default (H.263)
    Codec ID : XVID
    Codec ID/Hint : XviD
    Duration : 1h 35mn
    Bit rate : 1 676 Kbps
    Width : 720 pixels
    Height : 304 pixels
    Display aspect ratio : 2.35:1
    Frame rate : 23.976 fps
    Color space : YUV
    Chroma subsampling : 4:2:0
    Bit depth : 8 bits
    Scan type : Progressive
    Compression mode : Lossy
    Bits/(Pixel*Frame) : 0.319
    Stream size : 1.11 GiB (89%)
    Writing library : XviD 66
    Audio
    ID : 1
    Format : AC-3
    Format/Info : Audio Coding 3
    Mode extension : CM (complete main)
    Format settings, Endianness : Big
    Codec ID : 2000
    Duration : 1h 35mn
    Bit rate mode : Constant
    Bit rate : 192 Kbps
    Channel(s) : 2 channels
    Channel positions : Front: L R
    Sampling rate : 48.0 KHz
    Bit depth : 16 bits
    Compression mode : Lossy
    Stream size : 131 MiB (10%)
    Alignment : Split accross interleaves
    Interleave, duration : 42 ms (1.00 video frame)
    Interleave, preload duration : 500 ms

    Скриншот c названием фильма

    Скриншоты





    Скачать .torrent

    Скачать торрент-файл бесплатно и на максимальной скорости!

    Как скачивать? · Что такое торрент? · Рейтинг и ограничения

    !ВНИМАНИЕ!
    Сайт не распространяет и не хранит электронные версии произведений, а занимается лишь лишь предоставлением доступа к создаваемому пользователями каталогу ссылок на торрент-файлы, которые содержат только списки хеш-сумм, убедительная просьба с жалобами обращаться напрямую к пользователю. Файлы для обмена на трекере предоставлены пользователями сайта, и администрация не несёт ответственности за их содержание. Просьба не заливать файлы, защищенные авторскими правами, а также файлы нелегального содержания!


    _________________
    [Профиль] [ЛС]
    Показать сообщения:    
    Ответить на тему

    Текущее время: Сегодня, в 03:04

    Часовой пояс: GMT + 2



    Вы не можете начинать темы
    Вы не можете отвечать на сообщения
    Вы не можете редактировать свои сообщения
    Вы не можете удалять свои сообщения
    Вы не можете голосовать в опросах
    Вы не можете прикреплять файлы к сообщениям
    Вы не можете скачивать файлы