BitTorrentTracker PerecTracker.org
BitTorrentTracker PerecTracker.org
    
Регистрация  ·  Вход
 
 · 
Забыли пароль?

  • Рождественская история / A Christmas Carol (Роберт Земекис / Robert Zemeckis) [2009 г., мультфильм, фэнтези, драма, семейный, HDRip] AVO (Сербин)

    Ответить на тему
     
    Автор Сообщение

    rechyn

    Создавать темы 16-Май-2015 16:18

           

    [Цитировать]

    Рождественская история / A Christmas Carol
    Страна: США
    Жанр: мультфильм, фэнтези, драма, семейный
    Продолжительность: 01:35:48
    Год выпуска: 2009
    Перевод: Авторский (одноголосый закадровый) Юрий Сербин
    Русские субтитры: нет
    Режиссёр: Роберт Земекис / Robert Zemeckis
    Роли озвучивали: Джим Керри, Стив Валентайн, Дэрил Сабара, Сэйдж Райан, Эмбер Гейни Миде, Райан Очоа, Бобби Пейдж, Рон Боттитта, Сэмми Ханратти, Джулиан Холлоуэй
    Описание: Это викторианская поучительная история о старом и ожесточившемся скупердяе Эбенезере Скрудже, который в течение одной ночи переживает испытание глубокого очищения. Мистер Скрудж — финансист/денежный меняла, который посвятил всю свою жизнь накоплению богатства. Он презирает всё, кроме денег, включая дружбу, любовь и рождественские праздники.

    Качество: HDRip
    Формат: AVI
    Видео: XviD, 720x304 (2.37:1), 23.976 fps, XviD build 73 ~1699 kbps avg, 0.32 bit/pixel
    Аудио: AC3, 48 kHz, AC3 Dolby Digital, 3/2 (L,C,R,l,r) + LFE ch, ~448 kbps
    Субтитры: отсутствуют

    Доп.инфо

    за видеоряд спасибо Scarabey
    за дорогу с переводом Сербина большое спасибо Mixa_12345_mixa

    Подробные технические данные

    Полное имя : Рождественская история 2009.aviФормат : AVIФормат/Информация : Audio Video InterleaveРазмер файла : 1,44 ГбайтПродолжительность : 1 ч. 35 м.Общий поток : 2157 Кбит/секПрограмма кодирования : VirtualDubMod 1.5.10.2 (build 2540/release)Библиотека кодирования : VirtualDubMod build 2540/release
    ВидеоИдентификатор : 0Формат : MPEG-4 VisualПрофиль формата : Advanced Simple@L5Параметр BVOP формата : 1Параметр QPel формата : НетПараметр GMC формата : Без точки переходаПараметр матрицы формата : ВыборочнаяИдентификатор кодека : XVIDИдентификатор кодека/Подсказка : XviDПродолжительность : 1 ч. 35 м.Битрейт : 1700 Кбит/секШирина : 720 пикселейВысота : 304 пикселяСоотношение сторон : 2,35:1Частота кадров : 23,976 кадра/секЦветовое пространство : YUVСубдискретизация насыщенности : 4:2:0Битовая глубина : 8 битТип развёртки : ПрогрессивнаяМетод сжатия : С потерямиБит/(Пиксели*Кадры) : 0.324Размер потока : 1,14 Гбайт (79%)Библиотека кодирования : XviD 73
    АудиоИдентификатор : 1Формат : AC-3Формат/Информация : Audio Coding 3Расширение режима : CM (complete main)Параметр Endianness формата : BigИдентификатор кодека : 2000Продолжительность : 1 ч. 35 м.Вид битрейта : ПостоянныйБитрейт : 448 Кбит/секКаналы : 6 каналовРасположение каналов : Front: L C R, Side: L R, LFEЧастота : 48,0 КГцБитовая глубина : 16 битМетод сжатия : С потерямиРазмер потока : 307 Мбайт (21%)Выравнивание : Разделение по промежуткамПродолжительность промежутка : 42 мс. (1,00 видеокадр)Время предзагрузки промежутка : 500 мс.

    Скриншоты

    Скачать .torrent

    Скачать торрент-файл бесплатно и на максимальной скорости!

    Как скачивать? · Что такое торрент? · Рейтинг и ограничения

    !ВНИМАНИЕ!
    Сайт не распространяет и не хранит электронные версии произведений, а занимается лишь лишь предоставлением доступа к создаваемому пользователями каталогу ссылок на торрент-файлы, которые содержат только списки хеш-сумм, убедительная просьба с жалобами обращаться напрямую к пользователю. Файлы для обмена на трекере предоставлены пользователями сайта, и администрация не несёт ответственности за их содержание. Просьба не заливать файлы, защищенные авторскими правами, а также файлы нелегального содержания!


    _________________
    [Профиль] [ЛС]
    Показать сообщения:    
    Ответить на тему

    Текущее время: Сегодня, в 00:03

    Часовой пояс: GMT + 2



    Вы не можете начинать темы
    Вы не можете отвечать на сообщения
    Вы не можете редактировать свои сообщения
    Вы не можете удалять свои сообщения
    Вы не можете голосовать в опросах
    Вы не можете прикреплять файлы к сообщениям
    Вы не можете скачивать файлы