BitTorrentTracker PerecTracker.org
BitTorrentTracker PerecTracker.org
    
Регистрация  ·  Вход
 
 · 
Забыли пароль?

  • [ATV3] Kingsman: Секретная служба / Kingsman: The Secret Service (Мэттью Вон / Matthew Vaughn ) [2014, Великобритания, Боевик, комедия, криминал, приключения, WEB-DL, HD (1080p)] DUB + Original + sub (rus, eng, ukr)

    Ответить на тему
     
    Автор Сообщение

    rechyn

    Создавать темы 16-Май-2015 07:54

           

    [Цитировать]

    Kingsman: Секретная служба / Kingsman: The Secret Service
    -
    7.882 / 10 8.10 / 10
    -Год выпуска: 2014
    Страна: Великобритания
    Жанр: Боевик, комедия, криминал, приключения
    Продолжительность: 02:09:19
    Перевод: Дублированный (iTunes)
    Оригинальная аудиодорожка: Есть
    Cубтитры: Русские форсированные, русские полные, украинские полные, английские форсированные и английские полные
    Режиссёр: Мэттью Вон
    Сценарий: Джейн Голдман, Мэттью Вон, Марк Миллар
    Продюсер: Адам Болинг, Дэвид Рейд, Мэттью Вон
    Оператор: Джордж Ричмонд
    Композитор: Генри Джекман, Мэттью Марджесон
    Художник: Пол Кирби, Эндрю Эклэнд-Сноу, Стив Картер
    Монтаж: Эдди Хэмилтон, Джон Харрис
    В ролях: Тэрон Эджертон, Колин Фёрт, Сэмюэл Л. Джексон, Марк Стронг, Софи Куксон, Майкл Кейн, София Бутелла, Саманта Янус, Джофф Белл, Марк Хэмилл
    Бюджет: $81 000 000
    Сборы в США: $127 342 902
    Сборы в мире: + $275 540 412 = $402 883 314
    Сборы в России: $9 789 977
    Мировая премьера: 13 декабря 2014
    Премьера (РФ): 12 февраля 2015, «Двадцатый Век Фокс СНГ»
    Релиз на DVD: 11 июня 2015, «Двадцатый Век Фокс СНГ»
    Релиз на Blu-Ray: 11 июня 2015, «Двадцатый Век Фокс СНГ»
    Описание: Эггси — молодой парень, который прошел службу в морской пехоте и имеет очень высокий уровень интеллекта. Он мог бы добиться многого, но выбрал другой путь и стал мелким преступником. Однажды он знакомится с Гарри Хартом, которому его отец когда-то спас жизнь. Этот человек решил сделать все возможное, чтобы сделать жизнь Эггси лучше и открыть для него новые возможности.-Качество исходника: WEB-DL 1080p (BlueBird)
    Качество: WEB-DL
    Тип: HD (1080p)
    Контейнер: M4V
    Видео: H.264, 1916x800, 2.40:1, 4 430 Kbps, 23.976 fps
    Аудио 1: Русский/Дублированный (iTunes), AAC / 2.0 / 157 Kbps / 48.0 KHz
    Аудио 2: Английский/Оригинальная дорожка , AAC / 2.0 / 157 Kbps / 48.0 KHz
    Аудио 3: Украинский/Дублированный (iTunes), AAC / 2.0 / 158 Kbps / 48.0 KHz
    Аудио 4: Русский/Дублированный (iTunes), AC-3 / 5.1 / 384 Kbps / 48.0 KHz
    Субтитры 1: Русские форсированные
    Субтитры 2: Английские форсированные
    Субтитры 3: Русские полные
    Субтитры 4: Английские полные
    Субтитры 5: Украинские полные
    -

    iTunes Meta Tags

    Sort Name: Kingsman: The Secret Service
    XID: Apple:vendor_id:2014-749540
    contentID: 957056432
    Copyright: © 2015 Twentieth Century Fox Film Corporation. All rights reserved.
    Screenwriters: Джейн Голдман, Мэттью Вон, Марк Миллар
    Producers: Адам Болинг, Дэвид Рейд, Мэттью Вон
    Director: Мэттью Вон
    Cast: Тэрон Эджертон, Колин Фёрт, Сэмюэл Л. Джексон, Марк Стронг, Софи Куксон, Майкл Кейн, София Бутелла, Саманта Янус, Джофф Белл, Марк Хэмилл, Станислав Тикунов, Виктор Вержбицкий, Владимир Антоник, Александр Коврижных, Борис Быстров
    Studio: 20th Century Fox
    Rating: 11
    Long Description: Эггси - молодой парень, который прошел службу в морской пехоте и имеет очень высокий уровень интеллекта. Он мог бы добиться многого, но выбрал другой путь и стал мелким преступником. Однажды он знакомится с Гарри Хартом, которому его отец когда-то спас жизнь. Этот человек решил сделать все возможное, чтобы сделать жизнь Эггси лучше и открыть для него новые возможности.
    Гарри рассказал ему, что является агентом секретной независимой организации, которая стоит на защите всего мира. Он предложил парню пройти обучение и стать новым членом их команды. Эггси принял предложение Харта, но сможет ли он справиться со всеми испытаниями и оправдать его надежды?..
    Description: Эггси - молодой парень, который прошел службу в морской пехоте и имеет очень высокий уровень интеллекта. Он мог бы добиться многого, но выбрал другой путь и стал мелким преступником. Однажды он знакомится с Гарри Хартом, которому его отец когда-то спас жизнь. Этот человек решил сделать все возможное, чтобы сделать жизнь Эггси лучше и открыть для него новые возможности.
    Release Date: 2014-12-13T08:00:00Z
    Genre: Action & Adventure
    Artist: Matthew Vaughn
    Name: Kingsman: The Secret Service

    MediaInfo

    General
    Complete name                            : /Users/imac/HandBrake/Kingsman.The.Secret.Service.WEB-DL.1080p.m4v
    Format                                   : MPEG-4
    Codec ID                                 : M4V
    File size                                : 4.78 GiB
    Duration                                 : 2h 9mn
    Overall bit rate mode                    : Variable
    Overall bit rate                         : 5 293 Kbps
    Movie name                               : Kingsman: The Secret Service
    Performer                                : Matthew Vaughn
    Genre                                    : Action & Adventure
    Recorded date                            : UTC 2014-12-13 08:00:00
    Encoded date                             : UTC 2015-05-15 22:57:07
    Tagged date                              : UTC 2015-05-15 23:00:16
    Copyright                                : © 2015 Twentieth Century Fox Film Corporation. All rights reserved.
    Cover                                    : Yes
    sonm                                     : Kingsman: The Secret Service
    desc                                     : Эггси - молодой парень, который прошел службу в морской пехоте и имеет очень высокий уровень интеллекта. Он мог бы добиться многого, но выбрал другой путь и стал мелким преступником. Однажды он знакомится с Гарри Хартом, которому его отец когда-то спас жизнь. Этот человек решил сделать все возможное, чтобы сделать жизнь Эггси лучше и открыть для него новые возможности.
    ldes                                     : Эггси - молодой парень, который прошел службу в морской пехоте и имеет очень высокий уровень интеллекта. Он мог бы добиться многого, но выбрал другой путь и стал мелким преступником. Однажды он знакомится с Гарри Хартом, которому его отец когда-то спас жизнь. Этот человек решил сделать все возможное, чтобы сделать жизнь Эггси лучше и открыть для него новые возможности.  / Гарри рассказал ему, что является агентом секретной независимой организации, которая стоит на защите всего мира. Он предложил парню пройти обучение и стать новым членом их команды. Эггси принял предложение Харта, но сможет ли он справиться со всеми испытаниями и оправдать его надежды?..
    hdvd                                     : 2
    stik                                     : 9
    rtng                                     : 0
    cnID                                     : 957056432
    xid                                      : Apple:vendor_id:2014-749540
    iTunEXTC                                 : mpaa|R|400|
    iTunMOVI                                 : <?xml version=\"1.0\" encoding=\"UTF-8\"?> / <!DOCTYPE plist PUBLIC \"-//Apple//DTD PLIST 1.0//EN\" \"http://anonym.to/?http://www.apple.com/DTDs/PropertyList-1.0.dtd\"> / <plist version=\"1.0\"> / <dict> /  <key>cast</key> /  <array> /   <dict> /    <key>name</key> /    <string>Тэрон Эджертон</string> /   </dict> /   <dict> /    <key>name</key> /    <string>Колин Фёрт</string> /   </dict> /   <dict> /    <key>name</key> /    <string>Сэмюэл Л. Джексон</string> /   </dict> /   <dict> /    <key>name</key> /    <string>Марк Стронг</string> /   </dict> /   <dict> /    <key>name</key> /    <string>Софи Куксон</string> /   </dict> /   <dict> /    <key>name</key> /    <string>Майкл Кейн</string> /   </dict> /   <dict> /    <key>name</key> /    <string>София Бутелла</string> /   </dict> /   <dict> /    <key>name</key> /    <string>Саманта Янус</string> /   </dict> /   <dict> /    <key>name</key> /    <string>Джофф Белл</string> /   </dict> /   <dict> /    <key>name</key> /    <string>Марк Хэмилл</string> /   </dict> /   <dict> /    <key>name</key> /    <string>Станислав Тикунов</string> /   </dict> /   <dict> /    <key>name</key> /    <string>Виктор Вержбицкий</string> /   </dict> /   <dict> /    <key>name</key> /    <string>Владимир Антоник</string> /   </dict> /   <dict> /    <key>name</key> /    <string>Александр Коврижных</string> /   </dict> /   <dict> /    <key>name</key> /    <string>Борис Быстров</string> /   </dict> /  </array> /  <key>directors</key> /  <array> /   <dict> /    <key>name</key> /    <string>Мэттью Вон</string> /   </dict> /  </array> /  <key>producers</key> /  <array> /   <dict> /    <key>name</key> /    <string>Адам Болинг</string> /   </dict> /   <dict> /    <key>name</key> /    <string>Дэвид Рейд</string> /   </dict> /   <dict> /    <key>name</key> /    <string>Мэттью Вон</string> /   </dict> /  </array> /  <key>screenwriters</key> /  <array> /   <dict> /    <key>name</key> /    <string>Джейн Голдман</string> /   </dict> /   <dict> /    <key>name</key> /    <string>Мэттью Вон</string> /   </dict> /   <dict> /    <key>name</key> /    <string>Марк Миллар</string> /   </dict> /  </array> /  <key>studio</key> /  <string>20th Century Fox</string> / </dict> / </plist>
    Video #1
    ID                                       : 1
    Format                                   : AVC
    Format/Info                              : Advanced Video Codec
    Format profile                           : High@L4.0
    Format settings, CABAC                   : Yes
    Format settings, ReFrames                : 5 frames
    Codec ID                                 : avc1
    Codec ID/Info                            : Advanced Video Coding
    Duration                                 : 2h 9mn
    Bit rate mode                            : Variable
    Bit rate                                 : 4 430 Kbps
    Width                                    : 1 916 pixels
    Height                                   : 800 pixels
    Display aspect ratio                     : 2.40:1
    Frame rate mode                          : Constant
    Frame rate                               : 23.976 fps
    Color space                              : YUV
    Chroma subsampling                       : 4:2:0
    Bit depth                                : 8 bits
    Scan type                                : Progressive
    Bits/(Pixel*Frame)                       : 0.121
    Stream size                              : 4.00 GiB (84%)
    Language                                 : English
    Encoded date                             : UTC 2015-05-15 22:57:07
    Tagged date                              : UTC 2015-05-15 22:57:15
    Color primaries                          : BT.709-5, BT.1361, IEC 61966-2-4, SMPTE RP177
    Transfer characteristics                 : BT.709-5, BT.1361
    Matrix coefficients                      : BT.709-5, BT.1361, IEC 61966-2-4 709, SMPTE RP177
    Video #2
    ID                                       : 11
    Format                                   : JPEG
    Codec ID                                 : jpeg
    Duration                                 : 2h 9mn
    Bit rate mode                            : Variable
    Bit rate                                 : 1 733 bps
    Width                                    : 640 pixels
    Height                                   : 270 pixels
    Display aspect ratio                     : 2.40:1
    Frame rate mode                          : Variable
    Frame rate                               : 0.005 fps
    Minimum frame rate                       : 0.002 fps
    Maximum frame rate                       : 0.014 fps
    Color space                              : YUV
    Chroma subsampling                       : 4:2:0
    Bit depth                                : 8 bits
    Compression mode                         : Lossy
    Bits/(Pixel*Frame)                       : 2.006
    Stream size                              : 1.49 MiB (0%)
    Language                                 : English
    Encoded date                             : UTC 2015-05-15 22:57:07
    Tagged date                              : UTC 2015-05-15 22:57:18
    Audio #1
    ID                                       : 2
    Format                                   : AAC
    Format/Info                              : Advanced Audio Codec
    Format profile                           : LC
    Codec ID                                 : 40
    Duration                                 : 2h 8mn
    Bit rate mode                            : Variable
    Bit rate                                 : 157 Kbps
    Maximum bit rate                         : 238 Kbps
    Channel(s)                               : 2 channels
    Channel positions                        : Front: L R
    Sampling rate                            : 48.0 KHz
    Compression mode                         : Lossy
    Stream size                              : 145 MiB (3%)
    Language                                 : Russian
    Encoded date                             : UTC 2015-05-15 22:57:07
    Tagged date                              : UTC 2015-05-15 22:57:19
    Audio #2
    ID                                       : 3
    Format                                   : AAC
    Format/Info                              : Advanced Audio Codec
    Format profile                           : LC
    Codec ID                                 : 40
    Duration                                 : 2h 8mn
    Bit rate mode                            : Variable
    Bit rate                                 : 157 Kbps
    Maximum bit rate                         : 253 Kbps
    Channel(s)                               : 2 channels
    Channel positions                        : Front: L R
    Sampling rate                            : 48.0 KHz
    Compression mode                         : Lossy
    Stream size                              : 144 MiB (3%)
    Language                                 : English
    Encoded date                             : UTC 2015-05-15 22:57:07
    Tagged date                              : UTC 2015-05-15 22:57:19
    Audio #3
    ID                                       : 4
    Format                                   : AAC
    Format/Info                              : Advanced Audio Codec
    Format profile                           : LC
    Codec ID                                 : 40
    Duration                                 : 2h 8mn
    Bit rate mode                            : Variable
    Bit rate                                 : 158 Kbps
    Maximum bit rate                         : 263 Kbps
    Channel(s)                               : 2 channels
    Channel positions                        : Front: L R
    Sampling rate                            : 48.0 KHz
    Compression mode                         : Lossy
    Stream size                              : 145 MiB (3%)
    Language                                 : Ukrainian
    Encoded date                             : UTC 2015-05-15 22:57:07
    Tagged date                              : UTC 2015-05-15 22:57:19
    Audio #4
    ID                                       : 5
    Format                                   : AC-3
    Format/Info                              : Audio Coding 3
    Mode extension                           : CM (complete main)
    Format settings, Endianness              : Big
    Codec ID                                 : ac-3
    Duration                                 : 2h 8mn
    Bit rate mode                            : Constant
    Bit rate                                 : 384 Kbps
    Channel(s)                               : 6 channels
    Channel positions                        : Front: L C R, Side: L R, LFE
    Sampling rate                            : 48.0 KHz
    Bit depth                                : 16 bits
    Compression mode                         : Lossy
    Stream size                              : 354 MiB (7%)
    Language                                 : Russian
    Encoded date                             : UTC 2015-05-15 22:57:07
    Tagged date                              : UTC 2015-05-15 22:57:19
    Text #1
    ID                                       : 6
    Format                                   : Timed text
    Muxing mode                              : sbtl
    Codec ID                                 : tx3g
    Duration                                 : 2h 8mn
    Bit rate mode                            : Variable
    Bit rate                                 : 2 bps
    Stream size                              : 2.18 KiB (0%)
    Language                                 : Russian
    Encoded date                             : UTC 2015-05-15 22:57:07
    Tagged date                              : UTC 2015-05-15 22:57:18
    Text #2
    ID                                       : 7
    Format                                   : Timed text
    Muxing mode                              : sbtl
    Codec ID                                 : tx3g
    Duration                                 : 44mn 9s
    Bit rate mode                            : Variable
    Bit rate                                 : 1 bps
    Stream size                              : 326 Bytes (0%)
    Language                                 : English
    Encoded date                             : UTC 2015-05-15 22:57:07
    Tagged date                              : UTC 2015-05-15 22:57:12
    Text #3
    ID                                       : 8
    Format                                   : Timed text
    Muxing mode                              : sbtl
    Codec ID                                 : tx3g
    Duration                                 : 2h 8mn
    Bit rate mode                            : Variable
    Bit rate                                 : 104 bps
    Stream size                              : 98.3 KiB (0%)
    Language                                 : Russian
    Encoded date                             : UTC 2015-05-15 22:57:07
    Tagged date                              : UTC 2015-05-15 22:57:18
    Text #4
    ID                                       : 9
    Format                                   : Timed text
    Muxing mode                              : sbtl
    Codec ID                                 : tx3g
    Duration                                 : 2h 1mn
    Bit rate mode                            : Variable
    Bit rate                                 : 71 bps
    Stream size                              : 63.8 KiB (0%)
    Language                                 : English
    Encoded date                             : UTC 2015-05-15 22:57:07
    Tagged date                              : UTC 2015-05-15 22:57:18
    Text #5
    ID                                       : 10
    Format                                   : Timed text
    Muxing mode                              : sbtl
    Codec ID                                 : tx3g
    Duration                                 : 2h 8mn
    Bit rate mode                            : Variable
    Bit rate                                 : 107 bps
    Stream size                              : 101 KiB (0%)
    Language                                 : Ukrainian
    Encoded date                             : UTC 2015-05-15 22:57:07
    Tagged date                              : UTC 2015-05-15 22:57:18
    Text #6
    ID                                       : 12
    Format                                   : Apple text
    Codec ID                                 : text
    Duration                                 : 2h 9mn
    Bit rate mode                            : Variable
    Bit rate                                 : 1 bps
    Stream size                              : 567 Bytes (0%)
    Language                                 : English
    Encoded date                             : UTC 2015-05-15 22:57:19
    Tagged date                              : UTC 2015-05-15 22:57:19
    Menu
    00:00:00.000                             : 1
    00:02:54.000                             : 2
    00:04:49.000                             : 3
    00:08:32.000                             : 4
    00:11:48.000                             : 5
    00:13:02.000                             : 6
    00:15:56.000                             : 7
    00:18:23.000                             : 8
    00:23:45.000                             : 9
    00:25:34.000                             : 10
    00:29:50.000                             : 11
    00:32:22.000                             : 12
    00:33:44.000                             : 13
    00:36:58.000                             : 14
    00:38:46.000                             : 15
    00:42:42.000                             : 16
    00:45:00.000                             : 17
    00:47:38.000                             : 18
    00:53:43.000                             : 19
    00:57:23.000                             : 20
    01:03:24.000                             : 21
    01:05:16.000                             : 22
    01:10:22.000                             : 23
    01:13:04.000                             : 24
    01:14:56.000                             : 25
    01:16:52.000                             : 26
    01:22:57.000                             : 27
    01:25:51.000                             : 28
    01:31:14.000                             : 29
    01:34:32.000                             : 30
    01:36:42.000                             : 31
    01:39:53.000                             : 32
    01:44:00.000                             : 33
    01:50:23.000                             : 34
    01:58:13.000                             : 35
    01:59:30.000                             : 36

    Скриншоты

    -

    Релиз подготовлен для просмотра на Apple TV, iPad, iPhone, iPod Touch.
    Для просмотра данного релиза на компьютере с ОС Windows рекомендуется использовать VLC media player
    Скачать .torrent

    Скачать торрент-файл бесплатно и на максимальной скорости!

    Как скачивать? · Что такое торрент? · Рейтинг и ограничения

    !ВНИМАНИЕ!
    Сайт не распространяет и не хранит электронные версии произведений, а занимается лишь лишь предоставлением доступа к создаваемому пользователями каталогу ссылок на торрент-файлы, которые содержат только списки хеш-сумм, убедительная просьба с жалобами обращаться напрямую к пользователю. Файлы для обмена на трекере предоставлены пользователями сайта, и администрация не несёт ответственности за их содержание. Просьба не заливать файлы, защищенные авторскими правами, а также файлы нелегального содержания!


    _________________
    [Профиль] [ЛС]
    Показать сообщения:    
    Ответить на тему

    Текущее время: Сегодня, в 00:32

    Часовой пояс: GMT + 2



    Вы не можете начинать темы
    Вы не можете отвечать на сообщения
    Вы не можете редактировать свои сообщения
    Вы не можете удалять свои сообщения
    Вы не можете голосовать в опросах
    Вы не можете прикреплять файлы к сообщениям
    Вы не можете скачивать файлы