BitTorrentTracker PerecTracker.org
BitTorrentTracker PerecTracker.org
    
Регистрация  ·  Вход
 
 · 
Забыли пароль?

  • Харольд здесь / Her er Harold (Гуннар Викене / Gunnar Vikene) [2014, Норвегия, комедия, драма, DVDRip] Rus Sub

    Ответить на тему
     
    Автор Сообщение

    Light

    Создавать темы 15-Май-2015 23:30

           

    [Цитировать]

    Харольд здесь / Her er Harold-Год выпуска: 2014
    Страна: Норвегия
    Студии: Filmpool Nord, Mer Film, Migma Film AB
    Жанр: комедия, драма
    Продолжительность: 01:24:32-Перевод: Субтитры (Артем Рагулин)
    Озвучение: нет
    Субтитры: русские
    Оригинальная дорожка: норвежская-Режиссёр и сценарист: Гуннар Викене / Gunnar Vikene-Актерский состав: Бьёрн Сундквист, Бьёрн Гранат, Самуэль Хелльстрём, Фанни Кеттер, Веслемёй Мёркид, Эверт Линдквист, Андреас Хюттсен, Улаф Хеггдаль, Видар Магнуссен-Мебельный магазин Харольда становится банкротом, когда в его городке открывают ИКЕА. Одержимый местью, Харольд отправляется в шведский город Эльмхульт, в котором была построена первая ИКЕА, и собирается похитить Ингвара Кампрада, основателя всемирно известного бренда.--Качество: DVDRip (ripped by sombre soul)
    Формат: AVI
    Кодек видео: XviD
    Кодек звука: AC3
    Видео: XviD, 720x304, 25 fps, 2146 kbps, 0.392 bit/pixel
    Аудио: AC3, 48 kHz, 6 ch, 448 kbps
    Субтитры: русские (sofsub)

    MediaInfo

    General
    Complete name                  : D:\Translations\Харольд здесь (Her er Harold) (2014)\Харольд здесь (Her er Harold) (2014).avi
    Format                         : AVI
    Format/Info                    : Audio Video Interleave
    File size                      : 1.54 GiB
    Duration                       : 1h 24mn
    Overall bit rate               : 2 603 Kbps
    Writing application            : VirtualDubMod 1.5.10.2 (build 2540/release)
    Writing library                : VirtualDubMod build 2540/release
    Video
    ID                             : 0
    Format                         : MPEG-4 Visual
    Format profile                 : Advanced Simple@L5
    Format settings, BVOP          : Yes
    Format settings, QPel          : Yes
    Format settings, GMC           : No warppoints
    Format settings, Matrix        : Custom
    Codec ID                       : XVID
    Codec ID/Hint                  : XviD
    Duration                       : 1h 24mn
    Bit rate                       : 2 146 Kbps
    Width                          : 720 pixels
    Height                         : 304 pixels
    Display aspect ratio           : 2.35:1
    Frame rate                     : 25.000 fps
    Color space                    : YUV
    Chroma subsampling             : 4:2:0
    Bit depth                      : 8 bits
    Scan type                      : Progressive
    Compression mode               : Lossy
    Bits/(Pixel*Frame)             : 0.392
    Stream size                    : 1.27 GiB (82%)
    Writing library                : XviD 1.2.1 (UTC 2008-12-04)
    Audio
    ID                             : 1
    Format                         : AC-3
    Format/Info                    : Audio Coding 3
    Mode extension                 : CM (complete main)
    Format settings, Endianness    : Big
    Codec ID                       : 2000
    Duration                       : 1h 24mn
    Bit rate mode                  : Constant
    Bit rate                       : 448 Kbps
    Channel(s)                     : 6 channels
    Channel positions              : Front: L C R, Side: L R, LFE
    Sampling rate                  : 48.0 KHz
    Bit depth                      : 16 bits
    Compression mode               : Lossy
    Stream size                    : 271 MiB (17%)
    Alignment                      : Split accross interleaves
    Interleave, duration           : 40 ms (1.00 video frame)
    Interleave, preload duration   : 500 ms

    Отрывок субтитров

    4
    00:02:07,036 --> 00:02:12,004
    Сегодня в Осане большое событие,
    открывается ИКЕА.
    5
    00:02:12,012 --> 00:02:18,016
    Сам основатель ИКЕА Ингвар Кампрад
    скрасил праздник своим присутствием.
    6
    00:02:18,024 --> 00:02:24,020
    Северная Европа. Скандинавия. Норвегия.
    7
    00:02:26,032 --> 00:02:29,060
    Берген, Осане.
    8
    00:02:29,068 --> 00:02:34,092
    На праздник приходят все больше
    и больше людей.
    9
    00:02:35,000 --> 00:02:41,069
    Мы рады сообщить, что сегодня откроется
    крупнейший во всей Скандинавии магазин ИКЕА.
    10
    00:02:44,008 --> 00:02:46,068
    Здесь есть все, о чем вы мечтали.
    11
    00:02:46,076 --> 00:02:53,004
    Мы делали мебель для всего Бергена,
    для больниц, школ, для всех людей...
    12
    00:02:53,012 --> 00:02:58,016
    — У каждого в Осане есть наша мебель.
    — Посчитаем вместе?
    13
    00:02:58,024 --> 00:03:00,092
    Моника, прошу!
    14
    00:03:01,000 --> 00:03:05,072
    Десять, девять, восемь, семь, шесть...
    15
    00:03:05,080 --> 00:03:11,009
    Мы пережили водяной матрас. Тебя
    тоже переживем. И твой хлам.
    16
    00:03:11,016 --> 00:03:13,036
    Ага. Петух.
    17
    00:03:17,020 --> 00:03:21,036
    Правильно.
    Так его, Марни.
    18
    00:03:21,044 --> 00:03:25,080
    — Спасибо.
    — Хватит, пожалуй.

    Скриншот с названием

    Скриншоты


    Скачать .torrent

    Скачать торрент-файл бесплатно и на максимальной скорости!

    Как скачивать? · Что такое торрент? · Рейтинг и ограничения

    !ВНИМАНИЕ!
    Сайт не распространяет и не хранит электронные версии произведений, а занимается лишь лишь предоставлением доступа к создаваемому пользователями каталогу ссылок на торрент-файлы, которые содержат только списки хеш-сумм, убедительная просьба с жалобами обращаться напрямую к пользователю. Файлы для обмена на трекере предоставлены пользователями сайта, и администрация не несёт ответственности за их содержание. Просьба не заливать файлы, защищенные авторскими правами, а также файлы нелегального содержания!


    _________________
    [Профиль] [ЛС]
    Показать сообщения:    
    Ответить на тему

    Текущее время: Сегодня, в 16:37

    Часовой пояс: GMT + 2



    Вы не можете начинать темы
    Вы не можете отвечать на сообщения
    Вы не можете редактировать свои сообщения
    Вы не можете удалять свои сообщения
    Вы не можете голосовать в опросах
    Вы не можете прикреплять файлы к сообщениям
    Вы не можете скачивать файлы