BitTorrentTracker PerecTracker.org
BitTorrentTracker PerecTracker.org
    
Регистрация  ·  Вход
 
 · 
Забыли пароль?

  • Поклонись огню (Толомуш Океев) [1971, драма, исторический фильм, VHSRip]

    Ответить на тему
     
    Автор Сообщение

    Light

    Создавать темы 15-Май-2015 23:30

           

    [Цитировать]

    Поклонись огню
    Жанр: драма, исторический фильм
    Год выпуска: 1971
    Продолжительность: 01:26:05
    Режиссёр: Толомуш Океев
    В ролях: Таттыбюбю Турсунбаева, Искендер Рыскулов, Болот Бейшеналиев, Сабира Кумушалиева, Суйменкул Чокморов, Джамал (Жамал) Сейдакматова, Муратбек Рыскулов, Бакирдин Алиев, Джапар Садыков, Алымкул Алымбаев, Асанбек Кыдырназаров, Советбек Джумадылов, Зарема Мадремилова, Насретдин Дубашев, Тургун (Тургунбек) Бердалиев, Чолпон Данышманова, Аскар Сейдалиев, Алмаз Кыргызбаев, Алиман Джангорозова, Чоробек Думанаев, Текен Чалапинов
    Описание: Киргизия, тридцатые годы. В затерянном в горах кишлаке, против воли местных богатеев и наперекор вековым традициям, председателем сельхозкооператива выбирают женщину — Уркую Салиеву. Салиева намерена строить новую жизнь с непривычной для женщины непримиримостью ко всем тем, кто будет мешать беднякам.
    Доп. информация: Производство: Киргизфильм.Премьера: 25 декабря 1972 (Москва)
    В основу фильма легла подлинная биография Уркуи Салиевой, первой женщины - председателя колхоза в Киргизии, члена ЦИК республики. Она была зверски убита кулаками, когда ей было всего двадцать четыре года.
    Семпл: https://www.sendspace.com/file/almqky
    Качество видео: VHSRip
    Формат видео: AVI
    Видео: 624x352 (1.77:1),25 fps,XviD build 50,1482 kbps avg,0.27 bit/pixel.
    Аудио: 44.100 kHz,MPEG Layer 3,2 ch,123.12 kbps avg.

    MediaInfo

    Общее
    Полное имя : E:\Поклонись огню.1971.avi
    Формат : AVI
    Формат/Информация : Audio Video Interleave
    Размер файла : 997 Мбайт
    Продолжительность : 1 ч. 26 м.
    Режим общего битрейта : Переменный
    Общий поток : 1618 Кбит/сек
    Программа кодирования : MEncoder Sherpya-SVN-r32492-4.2.5
    Библиотека кодирования : MPlayer
    Видео
    Идентификатор : 0
    Формат : MPEG-4 Visual
    Профиль формата : Simple@L3
    Параметр BVOP формата : Нет
    Параметр QPel формата : Нет
    Параметр GMC формата : Без точки перехода
    Параметр матрицы формата : Default (H.263)
    Идентификатор кодека : XVID
    Идентификатор кодека/Подсказка : XviD
    Продолжительность : 1 ч. 26 м.
    Битрейт : 1483 Кбит/сек
    Ширина : 624 пикселя
    Высота : 352 пикселя
    Соотношение сторон : 16:9
    Соотношение сторон в оригинале : 16:9
    Частота кадров : 25,000 кадров/сек
    Цветовое пространство : YUV
    Субдискретизация насыщенности : 4:2:0
    Битовая глубина : 8 бит
    Тип развёртки : Прогрессивная
    Метод сжатия : С потерями
    Бит/(Пиксели*Кадры) : 0.270
    Размер потока : 913 Мбайт (92%)
    Библиотека кодирования : XviD 1.2.1 (UTC 2008-12-04)
    Аудио
    Идентификатор : 1
    Формат : MPEG Audio
    Версия формата : Version 1
    Профиль формата : Layer 3
    Режим : Joint stereo
    Расширение режима : MS Stereo
    Идентификатор кодека : 55
    Идентификатор кодека/Подсказка : MP3
    Продолжительность : 1 ч. 26 м.
    Вид битрейта : Переменный
    Битрейт : 123 Кбит/сек
    Каналы : 2 канала
    Частота : 44,1 КГц
    Метод сжатия : С потерями
    Размер потока : 75,8 Мбайт (8%)
    Выравнивание : Соединение по промежуткам
    Продолжительность промежутка : 26 мс. (0,65 видеокадр)
    Время предзагрузки промежутка : 511 мс.

    Скриншоты

    Скачать .torrent

    Скачать торрент-файл бесплатно и на максимальной скорости!

    Как скачивать? · Что такое торрент? · Рейтинг и ограничения

    !ВНИМАНИЕ!
    Сайт не распространяет и не хранит электронные версии произведений, а занимается лишь лишь предоставлением доступа к создаваемому пользователями каталогу ссылок на торрент-файлы, которые содержат только списки хеш-сумм, убедительная просьба с жалобами обращаться напрямую к пользователю. Файлы для обмена на трекере предоставлены пользователями сайта, и администрация не несёт ответственности за их содержание. Просьба не заливать файлы, защищенные авторскими правами, а также файлы нелегального содержания!


    _________________
    [Профиль] [ЛС]
    Показать сообщения:    
    Ответить на тему

    Текущее время: Сегодня, в 02:57

    Часовой пояс: GMT + 2



    Вы не можете начинать темы
    Вы не можете отвечать на сообщения
    Вы не можете редактировать свои сообщения
    Вы не можете удалять свои сообщения
    Вы не можете голосовать в опросах
    Вы не можете прикреплять файлы к сообщениям
    Вы не можете скачивать файлы