BitTorrentTracker PerecTracker.org
BitTorrentTracker PerecTracker.org
    
Регистрация  ·  Вход
 
 · 
Забыли пароль?

  • Чистилище / Purgatorio (Пау Тейксидор / Pau Teixidor) [2014, Испания, ужасы, триллер, DVDRip] VO + Sub Rus + Original Spa

    Ответить на тему
     
    Автор Сообщение

    Light

    Создавать темы 15-Май-2015 10:54

           

    [Цитировать]

    Чистилище / Purgatorio
    Страна: Испания
    Жанр: ужасы, триллер
    Год выпуска: 2014
    Продолжительность: 01:19:08
    Перевод: Одноголосый закадровый
    Cубтитры: русские
    Оригинальная аудиодорожка: испанский
    Режиссер: Пау Тейксидор / Pau Teixidor
    В ролях: Уна Чаплин, Сержи Мендес / Sergi Méndez, Андрес Гертрудикс, Ана Фернандес
    Описание: Марта со своим мужем переселяется в новую квартиру недавно построенного дома.
    Только начали появляться новые соседи, но их еще мало, и она ни с одним из них еще не знакома. Мужа долго не будет, и все идет к тому, что эту ночь ей придется провести одной.
    Тишина, пустота и одиночество...
    Но вдруг раздается громкий стук в дверь. Марта открывает. На пороге стоит ее новая соседка со своим сыном и просит приютить мальчика на время ее отсутствия.
    Вроде, одиночество будет хоть как-то скрашено, но поведение Дэниила – так зовут неожиданного гостя - становится все более настораживающим и странным. И вот он рассказывает, что в доме есть еще один мальчик, но видеть его может только он, и только при нем образ второго может быть видим и ощутим другими…
    Сэмпл: http://multi-up.com/1048588
    Качество видео: DVDRip
    Формат видео: AVI
    Видео: 720x304 (2.37:1), 25 fps, XviD MPEG-4 ~2062 kbps avg, 0.38 bit/pixel
    Аудио 1: 48 kHz, MPEG Layer 3, 2 ch, ~224.00 kbps avg(Русский)
    Аудио 2: 48 kHz, MPEG Layer 3, 2 ch, ~224.00 kbps avg(Испанский)
    Формат субтитров: softsub (SRT)
    Доп. информация о субтитрах: Русские внешние (TANER)

    MediaInfo

    Общее
    Полное имя : F:\С моей озвучкой\Чистилище\Purgatorio.avi
    Формат : AVI
    Формат/Информация : Audio Video Interleave
    Размер файла : 1,40 Гбайт
    Продолжительность : 1 ч. 19 м.
    Общий поток : 2526 Кбит/сек
    Программа кодирования : VirtualDubModRus 1.5.10.2 (build 2542/release)
    Библиотека кодирования : VirtualDubMod build 2542/release
    Видео
    Идентификатор : 0
    Формат : MPEG-4 Visual
    Профиль формата : Simple@L5
    Параметр BVOP формата : Нет
    Параметр QPel формата : Нет
    Параметр GMC формата : Без точки перехода
    Параметр матрицы формата : Default (H.263)
    Идентификатор кодека : XVID
    Идентификатор кодека/Подсказка : XviD
    Продолжительность : 1 ч. 19 м.
    Битрейт : 2064 Кбит/сек
    Ширина : 720 пикселей
    Высота : 304 пикселя
    Соотношение сторон : 16:9
    Соотношение сторон в оригинале : 2,35:1
    Частота кадров : 25,000 кадров/сек
    Цветовое пространство : YUV
    Субдискретизация насыщенности : 4:2:0
    Битовая глубина : 8 бит
    Тип развёртки : Прогрессивная
    Метод сжатия : С потерями
    Бит/(Пиксели*Кадры) : 0.377
    Размер потока : 1,14 Гбайт (82%)
    Библиотека кодирования : XviD 64
    Аудио #1
    Идентификатор : 1
    Формат : MPEG Audio
    Версия формата : Version 1
    Профиль формата : Layer 3
    Режим : Joint stereo
    Расширение режима : MS Stereo
    Идентификатор кодека : 55
    Идентификатор кодека/Подсказка : MP3
    Продолжительность : 1 ч. 19 м.
    Вид битрейта : Постоянный
    Битрейт : 224 Кбит/сек
    Каналы : 2 канала
    Частота : 48,0 КГц
    Метод сжатия : С потерями
    Размер потока : 127 Мбайт (9%)
    Выравнивание : Соединение по промежуткам
    Продолжительность промежутка : 40 мс. (1,00 видеокадр)
    Время предзагрузки промежутка : 504 мс.
    Библиотека кодирования : LAME3.96
    Аудио #2
    Идентификатор : 2
    Формат : MPEG Audio
    Версия формата : Version 1
    Профиль формата : Layer 3
    Режим : Joint stereo
    Расширение режима : MS Stereo
    Идентификатор кодека : 55
    Идентификатор кодека/Подсказка : MP3
    Продолжительность : 1 ч. 19 м.
    Вид битрейта : Постоянный
    Битрейт : 224 Кбит/сек
    Каналы : 2 канала
    Частота : 48,0 КГц
    Метод сжатия : С потерями
    Размер потока : 127 Мбайт (9%)
    Выравнивание : Соединение по промежуткам
    Продолжительность промежутка : 40 мс. (1,00 видеокадр)
    Время предзагрузки промежутка : 504 мс.
    Библиотека кодирования : LAME3.98

    Скриншоты

    Скачать .torrent

    Скачать торрент-файл бесплатно и на максимальной скорости!

    Как скачивать? · Что такое торрент? · Рейтинг и ограничения

    !ВНИМАНИЕ!
    Сайт не распространяет и не хранит электронные версии произведений, а занимается лишь лишь предоставлением доступа к создаваемому пользователями каталогу ссылок на торрент-файлы, которые содержат только списки хеш-сумм, убедительная просьба с жалобами обращаться напрямую к пользователю. Файлы для обмена на трекере предоставлены пользователями сайта, и администрация не несёт ответственности за их содержание. Просьба не заливать файлы, защищенные авторскими правами, а также файлы нелегального содержания!


    _________________
    [Профиль] [ЛС]
    Показать сообщения:    
    Ответить на тему

    Текущее время: Сегодня, в 18:37

    Часовой пояс: GMT + 2



    Вы не можете начинать темы
    Вы не можете отвечать на сообщения
    Вы не можете редактировать свои сообщения
    Вы не можете удалять свои сообщения
    Вы не можете голосовать в опросах
    Вы не можете прикреплять файлы к сообщениям
    Вы не можете скачивать файлы