BitTorrentTracker PerecTracker.org
BitTorrentTracker PerecTracker.org
    
Регистрация  ·  Вход
 
 · 
Забыли пароль?

  • [ATV3] Робот по имени Чаппи / Chappie (Нил Бломкамп / Neill Blomkamp ) [2015, США, Мексика, ЮАР , Фантастика, боевик, триллер, WEB-DL, HD (1080p)] DUB + Original + sub (rus, eng, ukr)

    Ответить на тему
     
    Автор Сообщение

    rechyn

    Создавать темы 15-Май-2015 06:42

           

    [Цитировать]

    Робот по имени Чаппи / Chappie
    «I am discovery. I am wonder. I am chappie»
    7.462 / 10 7.20 / 10
    -Год выпуска: 2015
    Страна: США, Мексика, ЮАР
    Жанр: Фантастика, боевик, триллер
    Продолжительность: 02:00:20
    Перевод: Дублированный (iTunes)
    Оригинальная аудиодорожка: Есть
    Cубтитры: Русские форсированные, русские полные, украинские полные и английские полные
    Режиссёр: Нил Бломкамп
    Сценарий: Нил Бломкамп, Тэрри Татчелл
    Продюсер: Нил Бломкамп, Саймон Кинберг, Джеймс Битонти
    Оператор: Трент Опалок
    Композитор: Ханс Циммер
    Художник: Жуль Кук, Бобби Кардосо, Эмилия Ру
    Монтаж: Джулиан Кларк, Марк Голдблатт
    В ролях: Шарлто Копли, Дев Патель, Ниндзя, Йоланди Фиссер, Хосе Пабло Кантильо, Хью Джекман, Сигурни Уивер, Брэндон Оре, Джонни Селема, Андерсон Купер
    Бюджет: $49 000 000
    Сборы в США: $31 569 268
    Сборы в мире: + $63 200 000 = $94 769 268
    Сборы в России: $7 146 696
    Мировая премьера: 4 марта 2015
    Премьера (РФ): 5 марта 2015, «WDSSPR»
    Релиз на DVD: 11 июня 2015, «CP Дистрибуция»
    Релиз на Blu-Ray: 11 июня 2015, «CP Дистрибуция»
    Описание: Чаппи — вундеркинд. Как и любой другой ребенок, он попадает под влияние своего окружения, и только его сердце и душа помогут ему найти свой путь. Но есть одна вещь, которая делает Чаппи непохожим на всех остальных: он — первый робот, способный чувствовать и думать.-Качество исходника: WEB-DL 1080p (NNMClub)
    Качество: WEB-DL
    Тип: HD (1080p)
    Контейнер: M4V
    Видео: H.264, 1916x796, 2.40:1, 4 409 Kbps, 23.976 fps
    Аудио 1: Русский/Дублированный (iTunes), AAC / 2.0 / 157 Kbps / 48.0 KHz
    Аудио 2: Английский/Оригинальная дорожка , AAC / 2.0 / 159 Kbps / 48.0 KHz
    Аудио 3: Украинский/Дублированный (iTunes), AAC / 2.0 / 158 Kbps / 48.0 KHz
    Аудио 4: Русский/Дублированный (iTunes), AC-3 / 5.1 / 384 Kbps / 48.0 KHz
    Субтитры 1: Русские форсированные
    Субтитры 2: Русские полные
    Субтитры 3: Английские полные
    Субтитры 4: Украинские полные
    -

    iTunes Meta Tags

    Sort Name: Chappie
    XID: Apple:vendor_id:2015-591485
    contentID: 968594526
    Screenwriters: Нил Бломкамп, Тэрри Татчелл
    Producers: Нил Бломкамп, Саймон Кинберг, Джеймс Битонти
    Director: Нил Бломкамп
    Cast: Шарлто Копли, Дев Патель, Ниндзя, Йоланди Фиссер, Хосе Пабло Кантильо, Хью Джекман, Сигурни Уивер, Брэндон Оре, Джонни Селема, Андерсон Купер
    Studio: Alpha Core
    Rating Annotation: Rated R for violence, language and brief nudity.
    Rating: 11
    Long Description: Чаппи - вундеркинд. Как и любой другой ребенок, он попадает под влияние своего окружения, и только его сердце и душа помогут ему найти свой путь. Но есть одна вещь, которая делает Чаппи непохожим на всех остальных: он - первый робот, способный чувствовать и думать.
    Description: Чаппи - вундеркинд. Как и любой другой ребенок, он попадает под влияние своего окружения, и только его сердце и душа помогут ему найти свой путь. Но есть одна вещь, которая делает Чаппи непохожим на всех остальных: он - первый робот, способный чувствовать и думать.
    Release Date: 2015-03-04T08:00:00Z
    Genre: Action & Adventure
    Artist: Neill Blomkamp
    Name: Chappie

    MediaInfo

    General
    Complete name                            : /Users/imac/HandBrake/Chappie (1080p HD).m4v
    Format                                   : MPEG-4
    Codec ID                                 : M4V
    File size                                : 4.44 GiB
    Duration                                 : 2h 0mn
    Overall bit rate mode                    : Variable
    Overall bit rate                         : 5 277 Kbps
    Movie name                               : Chappie
    Performer                                : Neill Blomkamp
    Genre                                    : Action & Adventure
    Recorded date                            : UTC 2015-03-04 08:00:00
    Encoded date                             : UTC 2015-05-14 21:18:46
    Tagged date                              : UTC 2015-05-14 21:20:08
    Cover                                    : Yes
    sonm                                     : Chappie
    desc                                     : Чаппи - вундеркинд. Как и любой другой ребенок, он попадает под влияние своего окружения, и только его сердце и душа помогут ему найти свой путь. Но есть одна вещь, которая делает Чаппи непохожим на всех остальных: он - первый робот, способный чувствовать и думать.
    ldes                                     : Чаппи - вундеркинд. Как и любой другой ребенок, он попадает под влияние своего окружения, и только его сердце и душа помогут ему найти свой путь. Но есть одна вещь, которая делает Чаппи непохожим на всех остальных: он - первый робот, способный чувствовать и думать.
    hdvd                                     : 2
    stik                                     : 9
    rtng                                     : 0
    cnID                                     : 968594526
    xid                                      : Apple:vendor_id:2015-591485
    iTunEXTC                                 : mpaa|R|400|Rated R for violence, language and brief nudity.
    iTunMOVI                                 : <?xml version=\"1.0\" encoding=\"UTF-8\"?> / <!DOCTYPE plist PUBLIC \"-//Apple//DTD PLIST 1.0//EN\" \"http://anonym.to/?http://www.apple.com/DTDs/PropertyList-1.0.dtd\"> / <plist version=\"1.0\"> / <dict> /  <key>cast</key> /  <array> /   <dict> /    <key>name</key> /    <string>Шарлто Копли</string> /   </dict> /   <dict> /    <key>name</key> /    <string>Дев Патель</string> /   </dict> /   <dict> /    <key>name</key> /    <string>Ниндзя</string> /   </dict> /   <dict> /    <key>name</key> /    <string>Йоланди Фиссер</string> /   </dict> /   <dict> /    <key>name</key> /    <string>Хосе Пабло Кантильо</string> /   </dict> /   <dict> /    <key>name</key> /    <string>Хью Джекман</string> /   </dict> /   <dict> /    <key>name</key> /    <string>Сигурни Уивер</string> /   </dict> /   <dict> /    <key>name</key> /    <string>Брэндон Оре</string> /   </dict> /   <dict> /    <key>name</key> /    <string>Джонни Селема</string> /   </dict> /   <dict> /    <key>name</key> /    <string>Андерсон Купер</string> /   </dict> /  </array> /  <key>directors</key> /  <array> /   <dict> /    <key>name</key> /    <string>Нил Бломкамп</string> /   </dict> /  </array> /  <key>producers</key> /  <array> /   <dict> /    <key>name</key> /    <string>Нил Бломкамп</string> /   </dict> /   <dict> /    <key>name</key> /    <string>Саймон Кинберг</string> /   </dict> /   <dict> /    <key>name</key> /    <string>Джеймс Битонти</string> /   </dict> /  </array> /  <key>screenwriters</key> /  <array> /   <dict> /    <key>name</key> /    <string>Нил Бломкамп</string> /   </dict> /   <dict> /    <key>name</key> /    <string>Тэрри Татчелл</string> /   </dict> /  </array> /  <key>studio</key> /  <string>Alpha Core</string> / </dict> / </plist>
    Video
    ID                                       : 1
    Format                                   : AVC
    Format/Info                              : Advanced Video Codec
    Format profile                           : High@L4.0
    Format settings, CABAC                   : Yes
    Format settings, ReFrames                : 5 frames
    Codec ID                                 : avc1
    Codec ID/Info                            : Advanced Video Coding
    Duration                                 : 2h 0mn
    Bit rate mode                            : Variable
    Bit rate                                 : 4 409 Kbps
    Width                                    : 1 916 pixels
    Height                                   : 796 pixels
    Display aspect ratio                     : 2.40:1
    Frame rate mode                          : Constant
    Frame rate                               : 23.976 fps
    Color space                              : YUV
    Chroma subsampling                       : 4:2:0
    Bit depth                                : 8 bits
    Scan type                                : Progressive
    Bits/(Pixel*Frame)                       : 0.121
    Stream size                              : 3.71 GiB (84%)
    Language                                 : English
    Encoded date                             : UTC 2015-05-14 21:18:46
    Tagged date                              : UTC 2015-05-14 21:19:11
    Color primaries                          : BT.709-5, BT.1361, IEC 61966-2-4, SMPTE RP177
    Transfer characteristics                 : BT.709-5, BT.1361
    Matrix coefficients                      : BT.709-5, BT.1361, IEC 61966-2-4 709, SMPTE RP177
    Audio #1
    ID                                       : 2
    Format                                   : AAC
    Format/Info                              : Advanced Audio Codec
    Format profile                           : LC
    Codec ID                                 : 40
    Duration                                 : 2h 0mn
    Bit rate mode                            : Variable
    Bit rate                                 : 157 Kbps
    Maximum bit rate                         : 230 Kbps
    Channel(s)                               : 2 channels
    Channel positions                        : Front: L R
    Sampling rate                            : 48.0 KHz
    Compression mode                         : Lossy
    Stream size                              : 135 MiB (3%)
    Language                                 : Russian
    Encoded date                             : UTC 2015-05-14 21:18:46
    Tagged date                              : UTC 2015-05-14 21:18:54
    Audio #2
    ID                                       : 3
    Format                                   : AAC
    Format/Info                              : Advanced Audio Codec
    Format profile                           : LC
    Codec ID                                 : 40
    Duration                                 : 2h 0mn
    Bit rate mode                            : Variable
    Bit rate                                 : 159 Kbps
    Maximum bit rate                         : 230 Kbps
    Channel(s)                               : 2 channels
    Channel positions                        : Front: L R
    Sampling rate                            : 48.0 KHz
    Compression mode                         : Lossy
    Stream size                              : 137 MiB (3%)
    Language                                 : English
    Encoded date                             : UTC 2015-05-14 21:18:46
    Tagged date                              : UTC 2015-05-14 21:18:54
    Audio #3
    ID                                       : 4
    Format                                   : AAC
    Format/Info                              : Advanced Audio Codec
    Format profile                           : LC
    Codec ID                                 : 40
    Duration                                 : 2h 0mn
    Bit rate mode                            : Variable
    Bit rate                                 : 158 Kbps
    Maximum bit rate                         : 249 Kbps
    Channel(s)                               : 2 channels
    Channel positions                        : Front: L R
    Sampling rate                            : 48.0 KHz
    Compression mode                         : Lossy
    Stream size                              : 136 MiB (3%)
    Language                                 : Ukrainian
    Encoded date                             : UTC 2015-05-14 21:18:46
    Tagged date                              : UTC 2015-05-14 21:18:54
    Audio #4
    ID                                       : 5
    Format                                   : AC-3
    Format/Info                              : Audio Coding 3
    Mode extension                           : CM (complete main)
    Format settings, Endianness              : Big
    Codec ID                                 : ac-3
    Duration                                 : 2h 0mn
    Bit rate mode                            : Constant
    Bit rate                                 : 384 Kbps
    Channel(s)                               : 6 channels
    Channel positions                        : Front: L C R, Side: L R, LFE
    Sampling rate                            : 48.0 KHz
    Bit depth                                : 16 bits
    Compression mode                         : Lossy
    Stream size                              : 331 MiB (7%)
    Language                                 : Russian
    Encoded date                             : UTC 2015-05-14 21:18:46
    Tagged date                              : UTC 2015-05-14 21:18:52
    Text #1
    ID                                       : 6
    Format                                   : Timed text
    Muxing mode                              : sbtl
    Codec ID                                 : tx3g
    Duration                                 : 1h 16mn
    Bit rate mode                            : Variable
    Bit rate                                 : 2 bps
    Stream size                              : 869 Bytes (0%)
    Language                                 : Russian
    Encoded date                             : UTC 2015-05-14 21:18:46
    Tagged date                              : UTC 2015-05-14 21:18:46
    Text #2
    ID                                       : 7
    Format                                   : Timed text
    Muxing mode                              : sbtl
    Codec ID                                 : tx3g
    Duration                                 : 1h 53mn
    Bit rate mode                            : Variable
    Bit rate                                 : 104 bps
    Stream size                              : 86.0 KiB (0%)
    Language                                 : Russian
    Encoded date                             : UTC 2015-05-14 21:18:46
    Tagged date                              : UTC 2015-05-14 21:18:46
    Text #3
    ID                                       : 8
    Format                                   : Timed text
    Muxing mode                              : sbtl
    Codec ID                                 : tx3g
    Duration                                 : 1h 53mn
    Bit rate mode                            : Variable
    Bit rate                                 : 66 bps
    Stream size                              : 54.8 KiB (0%)
    Language                                 : English
    Encoded date                             : UTC 2015-05-14 21:18:46
    Tagged date                              : UTC 2015-05-14 21:18:46
    Text #4
    ID                                       : 9
    Format                                   : Timed text
    Muxing mode                              : sbtl
    Codec ID                                 : tx3g
    Duration                                 : 1h 53mn
    Bit rate mode                            : Variable
    Bit rate                                 : 104 bps
    Stream size                              : 85.7 KiB (0%)
    Language                                 : Ukrainian
    Encoded date                             : UTC 2015-05-14 21:18:46
    Tagged date                              : UTC 2015-05-14 21:18:46

    Скриншоты

    -

    Релиз подготовлен для просмотра на Apple TV, iPad, iPhone, iPod Touch.
    Для просмотра данного релиза на компьютере с ОС Windows рекомендуется использовать VLC media player
    Скачать .torrent

    Скачать торрент-файл бесплатно и на максимальной скорости!

    Как скачивать? · Что такое торрент? · Рейтинг и ограничения

    !ВНИМАНИЕ!
    Сайт не распространяет и не хранит электронные версии произведений, а занимается лишь лишь предоставлением доступа к создаваемому пользователями каталогу ссылок на торрент-файлы, которые содержат только списки хеш-сумм, убедительная просьба с жалобами обращаться напрямую к пользователю. Файлы для обмена на трекере предоставлены пользователями сайта, и администрация не несёт ответственности за их содержание. Просьба не заливать файлы, защищенные авторскими правами, а также файлы нелегального содержания!


    _________________
    [Профиль] [ЛС]
    Показать сообщения:    
    Ответить на тему

    Текущее время: Сегодня, в 14:02

    Часовой пояс: GMT + 2



    Вы не можете начинать темы
    Вы не можете отвечать на сообщения
    Вы не можете редактировать свои сообщения
    Вы не можете удалять свои сообщения
    Вы не можете голосовать в опросах
    Вы не можете прикреплять файлы к сообщениям
    Вы не можете скачивать файлы