BitTorrentTracker PerecTracker.org
BitTorrentTracker PerecTracker.org
    
Регистрация  ·  Вход
 
 · 
Забыли пароль?

  • Фокус / Focus (Гленн Фикарра, Джон Рекуа) [2015, США, драма, мелодрама, комедия, криминал, WEB-DL HD (720p)] DUB, Original + SUB (rus, ukr forced)

    Ответить на тему
     
    Автор Сообщение

    rechyn

    Создавать темы 14-Май-2015 01:18

           

    [Цитировать]

    Фокус / Focus
    "Узнай в чём фокус"
    7.092 / 10
    -Год выпуска: 2015
    Страна: США
    Жанр: драма, мелодрама, комедия, криминал
    Продолжительность: 104 мин.
    Перевод: Профессиональный дублированный перевод
    Оригинальная аудиодорожка: Есть
    Cубтитры: Русские форсированные, украинские форсированные и русские полные
    Режиссёр: Гленн Фикарра, Джон Рекуа
    Сценарий: Гленн Фикарра, Джон Рекуа
    Продюсер: Дениз Ди Нови, Чарли Гоголак, Стэн Влодковски
    Оператор: Хавьер Гробет
    Композитор: Ник Урата
    Художник: Бет Микл, Келли Керли, Дэйна Пинк
    Монтаж: Ян Ковач
    В ролях: Уилл Смит, Марго Робби, Адриан Мартинес, Джералд МакРэйни, Родриго Санторо, Б.Д. Вонг, Бреннан Браун, Роберт Тейлор, Грифф Ферст, Стефани Онор
    Роли дублировали: Всеволод Кузнецов, Татьяна Шитова, Константин Карасик, Тимофей Спивак, Сергей Смирнов
    Бюджет: $50 100 000
    Сборы в США: $53 862 963
    Сборы в мире: + $100 100 000 = $153 962 963
    Сборы в России: $8 751 683
    Мировая премьера: 25 февраля 2015
    Премьера (РФ): 26 февраля 2015, Каро-Премьер
    Релиз на Blu-Ray: 25 июня 2015, CP Дистрибуция
    Релиз на DVD: 25 июня 2015, CP Дистрибуция
    Описание: История об опытном мошеннике, который влюбляется в девушку, делающую первые шаги на поприще нелегального отъема средств у граждан. Отношения становятся для них проблемой, когда обнаруживается, что романтика мешает их нечестному бизнесу.-Качество исходника: WEB-DL 720p (HDClub)
    Качество: WEB-DL
    Тип: 720p
    Контейнер: m4v
    Видео: 1280x718 at 23.976 fps, MPEG-4 AVC, ~4100 kbps avg
    Аудио#1: Russian: 48 kHz, ААС, 2/0 (L,R), ~160.00 kbps avg |Дубляж, iTunes Russia|
    Аудио#2: Ukrainian: 48 kHz, ААС, 2/0 (L,R), ~160.00 kbps avg |Дубляж, iTunes Russia|
    Аудио#3: English: 48 kHz, ААС, 2/0 (L,R), ~160.00 kbps avg |iTunes US|
    Аудио#4: Russian: 48 kHz, AC3, 3/2 (L,C,R,l,r) + LFE ch, ~384.00 kbps avg |Дубляж, iTunes Russia|
    Аудио#5: English: 48 kHz, AC3, 3/2 (L,C,R,l,r) + LFE ch, ~384.00 kbps avg |iTunes US|
    Субтитры №1: Russian: |Форсированные, iTunes Russia|
    Субтитры №2: Ukrainian: |Форсированные, iTunes Russia|
    Субтитры №3: Russian: |Полные, iTunes Russia|-

    Знаете ли Вы, что...
  • Марго Робби отдыхала со своим братом на острове в Хорватии, когда ей позвонили и предложили пройти прослушивание на роль Джесс. Она прибыла в отель к 6 утра. Ее рейс был в тот же день. За 20 минут она собрала все вещи, села на катамаран до главного острова, а затем на автобусе добралась до аэропорта. Прождав 6 часов в аэропорту она, наконец, вылетела во Францию, где ей пришлось прождать еще 6 часов до вылета в Нью-Йорк. Прибыв в Нью-Йорк, она обнаружила, что ее багаж пропал. В итоге она без косметики, в джинсовых шортах и рубашке, все же успела на прослушивание. Уилл Смит на это прослушивание опоздал. Когда он вошел, то сказал, что ехал из Куинса, на что Робби сказала, что она только что прилетела с острова, расположенного в Хорватии, но при этом все равно пришла вовремя. По словам Робби, как ей показалось, в итоге это помогло ей получить роль.
  • Роль Фархада предлагали Арти Лэнгу и Омиду Джалили, но оба актера отказались.
  • После того как Райан Гослинг покинул проект, главную роль предлагали Брэду Питту, но он отказался, и Бену Аффлеку, который в итоге также покинул проект из-за несогласованности расписаний съемок.
  • На роль Джесс рассматривались Эмма Стоун, Мишель Уильямс, Джессика Бил, Роуз Бирн, Оливия Манн и Кристен Стюарт, но, в конечном счете, роль досталась Марго Робби.
  • Чтобы придумать и поставить оригинальные движения карманников и обучить им Уилла Смита, Марго Робби и других актеров, режиссеры пригласили всемирно известного эксперта Аполло Роббинса (Apollo Robbins), знакомого многим в качестве «Джентльмена-вора».
    Ошибки в фильме
  • Когда Фархад рассказывает Джесс в летнем кафе о том, как без неё плохо Никки, бокал в руке Джесс то исчезает, то появляется.
    -

    iTunes Meta Tags for country ru

    Name: Фокус
    Artist: Glenn Ficarra & John Requa
    Genre: Drama
    Release Date: 2015-02-25T08:00:00Z
    Description: История об опытном мошеннике, который влюбляется в девушку, делающую первые шаги на поприще нелегального отъема средств у граждан. Отношения становятся для них проблемой, когда обнаруживается, что романтика мешает их нечестному бизнесу.
    Long Description: История об опытном мошеннике, который влюбляется в девушку, делающую первые шаги на поприще нелегального отъема средств у граждан. Отношения становятся для них проблемой, когда обнаруживается, что романтика мешает их нечестному бизнесу.
    Rating: 18+
    Studio: Warner Bros.
    Cast: Уилл Смит, Марго Робби, Адриан Мартинес, Джералд МакРэйни, Родриго Санторо, Б.Д. Вонг, Бреннан Браун, Роберт Тейлор, Грифф Ферст, Стефани Онор
    Director: Гленн Фикарра, Джон Рекуа
    Producers: Дениз Ди Нови, Чарли Гоголак, Стэн Влодковски
    Screenwriters: Гленн Фикарра, Джон Рекуа
    Copyright: © 2015 Warner Bros. Entertainment Inc. Все права защищены.
    contentID: 966768980
    XID: Apple:vendor_id:2015-680824
    Sort Name: Фокус

    iTunes Meta Tags for country us

    Name: Focus (2015)
    Artist: Glenn Ficarra & John Requa
    Genre: Action & Adventure
    Release Date: 2015-02-25T08:00:00Z
    Description: История об опытном мошеннике, который влюбляется в девушку, делающую первые шаги на поприще нелегального отъема средств у граждан. Отношения становятся для них проблемой, когда обнаруживается, что романтика мешает их нечестному бизнесу.
    Long Description: История об опытном мошеннике, который влюбляется в девушку, делающую первые шаги на поприще нелегального отъема средств у граждан. Отношения становятся для них проблемой, когда обнаруживается, что романтика мешает их нечестному бизнесу.
    Rating: R
    Rating Annotation: Rated R for language, some sexual content and brief violence.
    Studio: Warner Bros.
    Cast: Уилл Смит, Марго Робби, Адриан Мартинес, Джералд МакРэйни, Родриго Санторо, Б.Д. Вонг, Бреннан Браун, Роберт Тейлор, Грифф Ферст, Стефани Онор
    Director: Гленн Фикарра, Джон Рекуа
    Producers: Дениз Ди Нови, Чарли Гоголак, Стэн Влодковски
    Screenwriters: Гленн Фикарра, Джон Рекуа
    Copyright: © 2014 Warner Bros. Entertainment Inc. and Ratpac-Dune Entertainment LLC
    contentID: 966768980
    XID: Apple:vendor_id:2015-680824
    Sort Name: Focus (2015)

    MediaInfo 720p Release

    General
    Complete name : Focus (2015) (HD).m4v
    Format : MPEG-4
    Codec ID : M4V
    File size : 3.88 GiB
    Duration : 1h 44mn
    Overall bit rate mode : Variable
    Overall bit rate : 5 307 Kbps
    Movie name : Focus (2015)
    Performer : Glenn Ficarra & John Requa
    Director : Гленн Фикарра / Джон Рекуа
    Actor : Уилл Смит / Марго Робби / Адриан Мартинес / Джералд МакРэйни / Родриго Санторо / Б.Д. Вонг / Бреннан Браун / Роберт Тейлор / Грифф Ферст / Стефани Онор
    Screenplay by : Гленн Фикарра / Джон Рекуа
    Producer : Дениз Ди Нови / Чарли Гоголак / Стэн Влодковски
    Production studio : Warner Bros.
    Genre : Action & Adventure
    ContentType : Short Film
    Description : История об опытном мошеннике, который влюбляется в девушку, делающую первые шаги на поприще нелегального отъема средств у граждан. Отношения становятся для них проблемой, когда обнаруживается, что романтика мешает их нечестному бизнесу.
    Recorded date : UTC 2015-02-25 08:00:00
    Encoded date : UTC 2015-05-13 14:00:18
    Tagged date : UTC 2015-05-13 14:04:02
    Copyright : © 2014 Warner Bros. Entertainment Inc. and Ratpac-Dune Entertainment LLC
    Cover : Yes
    Rating : None
    Title/Sort : Focus
    LongDescription : История об опытном мошеннике, который влюбляется в девушку, делающую первые шаги на поприще нелегального отъема средств у граждан. Отношения становятся для них проблемой, когда обнаруживается, что романтика мешает их нечестному бизнесу.
    HDVideo : Yes
    AppleStoreCatalogID : 966768980
    Vendor : Apple:vendor_id:2015-680824
    ContentRating : mpaa|R|400|Rated R for language, some sexual content and brief violence.
    Video #1
    ID : 1
    Format : AVC
    Format/Info : Advanced Video Codec
    Format profile : High@L3.1
    Format settings, CABAC : No
    Format settings, ReFrames : 2 frames
    Format settings, GOP : M=2, N=90
    Codec ID : avc1
    Codec ID/Info : Advanced Video Coding
    Duration : 1h 44mn
    Bit rate : 4 072 Kbps
    Width : 1 280 pixels
    Height : 718 pixels
    Display aspect RATIO : 16:9
    Frame rate mode : Variable
    Frame rate : 23.976 fps
    Minimum frame rate : 23.810 fps
    Maximum frame rate : 24.390 fps
    Color space : YUV
    Chroma subsampling : 4:2:0
    Bit depth : 8 bits
    Scan type : Progressive
    Bits/(Pixel*Frame) : 0.185
    Stream size : 2.98 GiB (77%)
    Title : Main Program
    Language : English
    Encoded date : UTC 2015-05-13 14:00:18
    Tagged date : UTC 2015-05-13 14:03:01
    Color range : Limited
    Color primaries : BT.709
    Transfer characteristics : BT.709
    Matrix coefficients : BT.709
    Video #2
    ID : 11
    Format : JPEG
    Codec ID : jpeg
    Duration : 1h 44mn
    Bit rate mode : Variable
    Bit rate : 883 bps
    Width : 640 pixels
    Height : 359 pixels
    Display aspect RATIO : 16:9
    Frame rate mode : Variable
    Frame rate : 0.002 fps
    Minimum frame rate : 0.001 fps
    Maximum frame rate : 0.003 fps
    Color space : YUV
    Chroma subsampling : 4:2:0
    Bit depth : 8 bits
    Compression mode : Lossy
    Bits/(Pixel*Frame) : 1.922
    Stream size : 593 KiB (0%)
    Title : Chapter Images
    Language : English
    Encoded date : UTC 2015-05-13 14:03:04
    Tagged date : UTC 2015-05-13 14:03:05
    Audio #1
    ID : 2
    Format : AAC
    Format/Info : Advanced Audio Codec
    Format profile : LC
    Codec ID : 40
    Duration : 1h 44mn
    Bit rate mode : Variable
    Bit rate : 164 Kbps
    Maximum bit rate : 265 Kbps
    Channel(s) : 2 channels
    Channel positions : Front: L R
    Sampling rate : 48.0 KHz
    Compression mode : Lossy
    Stream size : 123 MiB (3%)
    Title : Russian DUB from iTunes Stereo
    Language : Russian
    Encoded date : UTC 2015-05-13 14:00:18
    Tagged date : UTC 2015-05-13 14:00:43
    Audio #2
    ID : 3
    Format : AAC
    Format/Info : Advanced Audio Codec
    Format profile : LC
    Codec ID : 40
    Duration : 1h 44mn
    Bit rate mode : Variable
    Bit rate : 125 Kbps
    Maximum bit rate : 196 Kbps
    Channel(s) : 2 channels
    Channel positions : Front: L R
    Sampling rate : 44.1 KHz
    Compression mode : Lossy
    Stream size : 93.8 MiB (2%)
    Title : Ukrainian DUB from iTunes Stereo
    Language : Ukrainian
    Encoded date : UTC 2015-05-13 14:00:18
    Tagged date : UTC 2015-05-13 14:03:01
    Audio #3
    ID : 4
    Format : AAC
    Format/Info : Advanced Audio Codec
    Format profile : LC
    Codec ID : 40
    Duration : 1h 44mn
    Bit rate mode : Variable
    Bit rate : 165 Kbps
    Maximum bit rate : 260 Kbps
    Channel(s) : 2 channels
    Channel positions : Front: L R
    Sampling rate : 48.0 KHz
    Compression mode : Lossy
    Stream size : 123 MiB (3%)
    Title : English Stereo
    Language : English
    Encoded date : UTC 2015-05-13 14:00:18
    Tagged date : UTC 2015-05-13 14:00:43
    Audio #4
    ID : 5
    Format : AC-3
    Format/Info : Audio Coding 3
    Mode extension : CM (complete main)
    Format settings, Endianness : Big
    Codec ID : ac-3
    Duration : 1h 44mn
    Bit rate mode : Constant
    Bit rate : 384 Kbps
    Channel(s) : 6 channels
    Channel positions : Front: L C R, Side: L R, LFE
    Sampling rate : 48.0 KHz
    Bit depth : 16 bits
    Compression mode : Lossy
    Stream size : 287 MiB (7%)
    Title : Russian DUB from iTunes DD 5.1
    Language : Russian
    Encoded date : UTC 2015-05-13 14:00:18
    Tagged date : UTC 2015-05-13 14:03:01
    Audio #5
    ID : 6
    Format : AC-3
    Format/Info : Audio Coding 3
    Mode extension : CM (complete main)
    Format settings, Endianness : Big
    Codec ID : ac-3
    Duration : 1h 44mn
    Bit rate mode : Constant
    Bit rate : 384 Kbps
    Channel(s) : 6 channels
    Channel positions : Front: L C R, Side: L R, LFE
    Sampling rate : 48.0 KHz
    Bit depth : 16 bits
    Compression mode : Lossy
    Stream size : 287 MiB (7%)
    Title : English DD 5.1
    Language : English
    Encoded date : UTC 2015-05-13 14:00:18
    Tagged date : UTC 2015-05-13 14:03:01
    Text #1
    ID : 7
    Format : Timed Text
    Muxing mode : sbtl
    Codec ID : tx3g
    Duration : 1h 39mn
    Bit rate mode : Variable
    Bit rate : 1 bps
    Stream size : 456 Bytes (0%)
    Title : Russian Forced Subtitle
    Language : Russian
    Encoded date : UTC 2015-05-13 14:00:18
    Tagged date : UTC 2015-05-13 14:00:18
    Text #2
    ID : 8
    Format : Timed Text
    Muxing mode : sbtl
    Codec ID : tx3g
    Duration : 1h 19mn
    Bit rate mode : Variable
    Bit rate : 0 bps
    Stream size : 225 Bytes (0%)
    Title : Ukrainian Forced Subtitle
    Language : Ukrainian
    Encoded date : UTC 2015-05-13 14:00:18
    Tagged date : UTC 2015-05-13 14:00:18
    Text #3
    ID : 9
    Format : Timed Text
    Muxing mode : sbtl
    Codec ID : tx3g
    Duration : 1h 39mn
    Bit rate mode : Variable
    Bit rate : 114 bps
    Stream size : 83.1 KiB (0%)
    Title : Russian Subtitle
    Language : Russian
    Encoded date : UTC 2015-05-13 14:00:18
    Tagged date : UTC 2015-05-13 14:00:18
    Menu #1
    00:00:00.000 : 1
    00:09:16.000 : 2
    00:18:53.000 : 3
    00:30:21.000 : 4
    00:40:54.000 : 5
    00:49:14.000 : 6
    01:00:08.000 : 7
    01:11:01.000 : 8
    01:20:25.000 : 9
    01:28:32.000 : 10
    01:39:17.000 : 11
    Menu #2
    ID : 10
    Codec ID : text
    Duration : 1h 44mn
    Title : Chapter Titles
    Language : English
    Encoded date : UTC 2015-05-13 14:03:01
    Tagged date : UTC 2015-05-13 14:03:01
    00:00:00.000 : 1
    00:09:16.000 : 2
    00:18:53.000 : 3
    00:30:21.000 : 4
    00:40:54.000 : 5
    00:49:14.000 : 6
    01:00:08.000 : 7
    01:11:01.000 : 8
    01:20:25.000 : 9
    01:28:32.000 : 10
    01:39:17.000 : 11
    Bit rate mode : VBR

    Скриншоты 720p Release

    -

    Релиз подготовлен для просмотра на Apple TV, iPad, iPhone, iPod Touch.
    Для просмотра данного релиза на компьютере с ОС Windows рекомендуется использовать VLC media player
    Скачать .torrent

    Скачать торрент-файл бесплатно и на максимальной скорости!

    Как скачивать? · Что такое торрент? · Рейтинг и ограничения

    !ВНИМАНИЕ!
    Сайт не распространяет и не хранит электронные версии произведений, а занимается лишь лишь предоставлением доступа к создаваемому пользователями каталогу ссылок на торрент-файлы, которые содержат только списки хеш-сумм, убедительная просьба с жалобами обращаться напрямую к пользователю. Файлы для обмена на трекере предоставлены пользователями сайта, и администрация не несёт ответственности за их содержание. Просьба не заливать файлы, защищенные авторскими правами, а также файлы нелегального содержания!


  • _________________
    [Профиль] [ЛС]
    Показать сообщения:    
    Ответить на тему

    Текущее время: Сегодня, в 22:46

    Часовой пояс: GMT + 2



    Вы не можете начинать темы
    Вы не можете отвечать на сообщения
    Вы не можете редактировать свои сообщения
    Вы не можете удалять свои сообщения
    Вы не можете голосовать в опросах
    Вы не можете прикреплять файлы к сообщениям
    Вы не можете скачивать файлы