BitTorrentTracker PerecTracker.org
BitTorrentTracker PerecTracker.org
    
Регистрация  ·  Вход
 
 · 
Забыли пароль?

  • Бухта радости (Эльдар Кулиев) [1977, Исторический фильм., VHSRip]

    Ответить на тему
     
    Автор Сообщение

    Light

    Создавать темы 13-Май-2015 21:06

           

    [Цитировать]

    Бухта радости.Жанр: Исторический фильм.
    Год выпуска: 1977
    Продолжительность: 02:04:46
    Режиссёр: Эльдар Кулиев
    В ролях: Гасанага Турабов, Алиаббас Гадиров, Пантелеймон Крымов, Гасан Мамедов, Нодар Шашик-оглы, Таниля Ахмерова, Галина Андреева, Радован Лукавский, Эдуард Дубский, Йозеф Лангмилер, Ф. Валецки, Алексей Сафонов, Рамиз Меликов, Абдул (Абдула) Махмудов, Мухтар Маниев, Садых Гусейнов, Константин Адамов, Николай Бармин, Шахмар Алекперов, В. Дашдамиров
    Описание: О строительстве первого в мире морского нефтяного промысла и попытках "мирового капитала"-помешать грандиозным замыслам Страны Советов. Место и время действия - 1920-е годы, Азербайджан, Суруханские промыслы.
    Доп. информация: 1-я серия "Диверсия назначена на завтра",
    2-я серия "Начало легенды".

    Семпл: https://www.sendspace.com/file/p7amfm
    Качество видео: VHSRip
    Формат видео: AVI
    Видео: 640x352 (1.82:1),25 fps,XviD build 50,1942 kbps avg,0.34 bit/pixel.
    Аудио: 44.100 kHz,MPEG Layer 3,2 ch,106.90 kbps avg.

    MediaInfo

    Общее
    Полное имя : E:\Бухта радости.1977.avi
    Формат : AVI
    Формат/Информация : Audio Video Interleave
    Профиль формата : OpenDML
    Размер файла : 1,79 Гбайт
    Продолжительность : 2 ч. 4 м.
    Режим общего битрейта : Переменный
    Общий поток : 2056 Кбит/сек
    Программа кодирования : MEncoder Sherpya-SVN-r32492-4.2.5
    Библиотека кодирования : MPlayer
    Видео
    Идентификатор : 0
    Формат : MPEG-4 Visual
    Профиль формата : Simple@L3
    Параметр BVOP формата : Нет
    Параметр QPel формата : Нет
    Параметр GMC формата : Без точки перехода
    Параметр матрицы формата : Default (H.263)
    Идентификатор кодека : XVID
    Идентификатор кодека/Подсказка : XviD
    Продолжительность : 2 ч. 4 м.
    Битрейт : 1936 Кбит/сек
    Ширина : 640 пикселей
    Высота : 352 пикселя
    Соотношение сторон : 16:9
    Частота кадров : 25,000 кадров/сек
    Цветовое пространство : YUV
    Субдискретизация насыщенности : 4:2:0
    Битовая глубина : 8 бит
    Тип развёртки : Прогрессивная
    Метод сжатия : С потерями
    Бит/(Пиксели*Кадры) : 0.344
    Размер потока : 1,69 Гбайт (94%)
    Библиотека кодирования : XviD 1.2.1 (UTC 2008-12-04)
    Аудио
    Идентификатор : 1
    Формат : MPEG Audio
    Версия формата : Version 1
    Профиль формата : Layer 3
    Режим : Joint stereo
    Расширение режима : MS Stereo
    Идентификатор кодека : 55
    Идентификатор кодека/Подсказка : MP3
    Продолжительность : 2 ч. 4 м.
    Вид битрейта : Переменный
    Битрейт : 107 Кбит/сек
    Каналы : 2 канала
    Частота : 44,1 КГц
    Метод сжатия : С потерями
    Размер потока : 95,4 Мбайт (5%)
    Выравнивание : Соединение по промежуткам
    Продолжительность промежутка : 26 мс. (0,65 видеокадр)
    Время предзагрузки промежутка : 386 мс.

    Скриншоты

    Скачать .torrent

    Скачать торрент-файл бесплатно и на максимальной скорости!

    Как скачивать? · Что такое торрент? · Рейтинг и ограничения

    !ВНИМАНИЕ!
    Сайт не распространяет и не хранит электронные версии произведений, а занимается лишь лишь предоставлением доступа к создаваемому пользователями каталогу ссылок на торрент-файлы, которые содержат только списки хеш-сумм, убедительная просьба с жалобами обращаться напрямую к пользователю. Файлы для обмена на трекере предоставлены пользователями сайта, и администрация не несёт ответственности за их содержание. Просьба не заливать файлы, защищенные авторскими правами, а также файлы нелегального содержания!


    _________________
    [Профиль] [ЛС]
    Показать сообщения:    
    Ответить на тему

    Текущее время: Сегодня, в 10:52

    Часовой пояс: GMT + 2



    Вы не можете начинать темы
    Вы не можете отвечать на сообщения
    Вы не можете редактировать свои сообщения
    Вы не можете удалять свои сообщения
    Вы не можете голосовать в опросах
    Вы не можете прикреплять файлы к сообщениям
    Вы не можете скачивать файлы