Register  ·  Log in
Forgot password?

  • Коварный / Infidus (Джулио Де Санти / Giulio De Santi) [2015, Италия, триллер, DVDRip] VO (Мегапыхарь)

    Reply to topic
    Author Message


    Post 13-May-2015 01:06



    Коварный / Infidus
    Страна: Италия
    Жанр: Жесткое кино
    Год выпуска: 2015
    Продолжительность: 01: 15: 58
    Перевод: Одноголосый закадровый Мегапыхарь
    Cубтитры: нет
    Режиссер: Джулио Де Санти / Giulio De Santi
    В ролях: Бонини Мино, Массимо Карателли, Маурицио Дзаффино, Стефания Бонини, Андреа Ди Спирито, Уолтер Монтано
    Описание: Недалеко от столицы Италии жизнь идет привычно и размеренно. В ходе этой жизни тесно пересекаются два человека – Массимо, который только, что потерял супругу, в результате убийства бандитами, отчаянно старается отомстить преступникам, и Барарба, который только вышел из заключения, узнавший о том, что его родной брат член банды. Теперь Барабба осознает, что изменить такое положение вещей можно только кровью и жестокостью.
    Образец видео
    Качество видео: DVDRip
    Формат видео: AVI
    Видео: xvid, 720x404, 16/9, 25.000 fps, 899 fps
    Аудио: AC-3, 192 kbps, 2 ch


    Format : AVI
    Format/Info : Audio Video Interleave
    File size : 598 MiB
    Duration : 1h 15mn
    Overall bit rate : 1 100 Kbps
    Writing application : VirtualDubMod (build 2540/release)
    Writing library : VirtualDubMod build 2540/release
    ID : 0
    Format : xvid
    Codec ID : xvid
    Duration : 1h 15mn
    Bit rate : 899 Kbps
    Width : 720 pixels
    Height : 404 pixels
    Display aspect ratio : 16:9
    Frame rate : 25.000 fps
    Bits/(Pixel*Frame) : 0.124
    Stream size : 488 MiB (82%)
    ID : 1
    Format : AC-3
    Format/Info : Audio Coding 3
    Mode extension : CM (complete main)
    Format settings, Endianness : Big
    Codec ID : 2000
    Duration : 1h 15mn
    Bit rate mode : Constant
    Bit rate : 192 Kbps
    Channel(s) : 2 channels
    Channel positions : Front: L R
    Sampling rate : 48.0 KHz
    Compression mode : Lossy
    Stream size : 104 MiB (17%)
    Alignment : Split accross interleaves
    Interleave, duration : 40 ms (1.00 video frame)
    Interleave, preload duratio : 500 ms

    Screenshot с названием


    И все эти аплодисменты - МЕГАПЫХАРЬ
    Download .torrent

    Download free and at maximum speed!

    How to Download? · What is a torrent? · Ratings and Limitations

    The site does not extend and does not store electronic(digital) versions of products, and only gives access to a reference catalogue created by users on torrent-files which contain only lists of the hash-sums, the earnest entreaty, with complaints(abuse) to access directly to the user. Files for an exchange on tracker are given by users of a site, and the administration does not bear the responsibility for their maintenance. The request to not fill in the files protected by copyrights, and also files of the illegal maintenance!

    [Profile] [PM]
    Display posts from previous:    
    Reply to topic

    The time now is: Today 12:37

    All times are GMT + 3 Hours

    You cannot post new topics in this forum
    You cannot reply to topics in this forum
    You cannot edit your posts in this forum
    You cannot delete your posts in this forum
    You cannot vote in polls in this forum
    You cannot attach files in this forum
    You cannot download files in this forum