BitTorrentTracker PerecTracker.org
BitTorrentTracker PerecTracker.org
    
Регистрация  ·  Вход
 
 · 
Забыли пароль?

  • И повторится всё... (Ярослав Лупий) [1984, психологическая молодёжная драма, DVB]

    Ответить на тему
     
    Автор Сообщение

    Light

    Создавать темы 12-Май-2015 19:54

           

    [Цитировать]

    И повторится всё...
    Жанр: психологическая молодёжная драма
    Год выпуска: 1984
    Продолжительность: 1:14:09
    Режиссёр: Ярослав Лупий
    В ролях: Игорь Шептицкий, Ольга Кабо, Татьяна Абанина, Олег Бельдюгин, Сергей Бурлаков, Александр Варакин, Сергей Дробязко, Дмитрий Ивановский, Татьяна Колотилова, Игорь Коршунов, Татьяна Ковшова, Оксана Глазунова, Виктория Дубчак, Олег Кондратьев, Марина Малюха, Инна Недорез, Валентина Росол, Андрей Румянцев, Светлана Силкина, Владимир Скрипник, Сергей Чапский, Франческа Переплётчикова, Андрей Горецкий, Ирина Калиновская, Гелена Ивлиева, В. Кудряшов
    Описание: Студенты-первокурсники пединститута берут первые уроки будущей профессии. Вместе со старшеклассниками, герои выезжают в колхоз на уборку урожая и пока не подозревают о тех трудностях, которые последуют за чередой мелких неудач.
    Семпл: http://sendfile.su/1117296
    Качество видео: DVB
    Формат видео: MPEG-PS
    Видео: MPEG2 Video 720x576 (4:3) 25,000 кадров/сек 2808 Кбит/сек (15,0 Мбит/сек)
    Аудио: Русский MPEG Audio 48,0 КГц 2 канала 192 Кбит/сек

    MediaInfo

    Общее
    Полное имя : E:\Torrents\СВОИ\И повторится всё....mpg
    Формат : MPEG-PS
    Размер файла : 1,59 Гбайт
    Продолжительность : 1 ч. 14 м.
    Режим общего битрейта : Переменный
    Общий поток : 3060 Кбит/сек
    Библиотека кодирования : (c) 1998-2010 Womble Multimedia, Inc. / MPEG Video Wizard DVD 5.0.0.114 (01/2010) / Jul 5 2010
    Видео
    Идентификатор : 224 (0xE0)
    Формат : MPEG Video
    Версия формата : Version 2
    Профиль формата : Main@Main
    Параметр BVOP формата : Да
    Параметр матрицы формата : Выборочная
    Параметр GOP формата : Variable
    Format_Settings_PictureStructure : Frame
    Продолжительность : 1 ч. 14 м.
    Вид битрейта : Переменный
    Битрейт : 2808 Кбит/сек
    Максимальный битрейт : 15,0 Мбит/сек
    Ширина : 720 пикселей
    Высота : 576 пикселей
    Соотношение сторон : 4:3
    Частота кадров : 25,000 кадров/сек
    Стандарт вещания : PAL
    Цветовое пространство : YUV
    Субдискретизация насыщенности : 4:2:0
    Битовая глубина : 8 бит
    Тип развёртки : Чересстрочная
    Порядок развёртки : Верхнее поле первое
    Метод сжатия : С потерями
    Бит/(Пиксели*Кадры) : 0.271
    Временной код первого кадра : 00:00:00:00
    Оригинал временного кода : Group of pictures header
    Размер потока : 1,45 Гбайт (92%)
    Библиотека кодирования : (c) 1998-2010 Womble Multimedia, Inc. / MPEG Video Wizard DVD 5.0.0.114 (01/2010) / Jul 5 2010
    Аудио
    Идентификатор : 192 (0xC0)
    Формат : MPEG Audio
    Версия формата : Version 1
    Профиль формата : Layer 2
    Продолжительность : 1 ч. 14 м.
    Вид битрейта : Постоянный
    Битрейт : 192 Кбит/сек
    Каналы : 2 канала
    Частота : 48,0 КГц
    Метод сжатия : С потерями
    Размер потока : 102 Мбайт (6%)
    Меню

    Скриншоты


    Скачать .torrent

    Скачать торрент-файл бесплатно и на максимальной скорости!

    Как скачивать? · Что такое торрент? · Рейтинг и ограничения

    !ВНИМАНИЕ!
    Сайт не распространяет и не хранит электронные версии произведений, а занимается лишь лишь предоставлением доступа к создаваемому пользователями каталогу ссылок на торрент-файлы, которые содержат только списки хеш-сумм, убедительная просьба с жалобами обращаться напрямую к пользователю. Файлы для обмена на трекере предоставлены пользователями сайта, и администрация не несёт ответственности за их содержание. Просьба не заливать файлы, защищенные авторскими правами, а также файлы нелегального содержания!


    _________________
    [Профиль] [ЛС]
    Показать сообщения:    
    Ответить на тему

    Текущее время: Сегодня, в 05:58

    Часовой пояс: GMT + 2



    Вы не можете начинать темы
    Вы не можете отвечать на сообщения
    Вы не можете редактировать свои сообщения
    Вы не можете удалять свои сообщения
    Вы не можете голосовать в опросах
    Вы не можете прикреплять файлы к сообщениям
    Вы не можете скачивать файлы