BitTorrentTracker PerecTracker.org
BitTorrentTracker PerecTracker.org
    
Регистрация  ·  Вход
 
 · 
Забыли пароль?

  • Спайк Айленд / Spike Island (Мат Уайткросс / Mat Whitecross) [2012, Великобритания, драма, музыка The Stone Roses, HDRip-AVC] Sub Rus + Original Eng

    Ответить на тему
     
    Автор Сообщение

    Light

    Создавать темы 12-Май-2015 11:30

           

    [Цитировать]

    Спайк Айленд / Spike Island
    Страна: Великобритания
    Жанр: драма, музыка
    Год выпуска: 2012
    Продолжительность: 1:44:53
    Перевод: Субтитры indieART [Владимир Блинов]
    Cубтитры: русские, английские
    Оригинальная аудиодорожка: английский
    Режиссер: Мат Уайткросс / Mat Whitecross
    Сценарий: Крис Когхилл / Chris Coghill
    В ролях: Эллиотт Титтенсор, Нико Мираллегро, Джордан Мерфи, Адам Лонг, Оливер Хилд, Эмилия Кларк, Крис Когхилл, Мэттью МакНалти, Майкл Соча, Лесли Мэнвилл
    Описание:
    В мае 1990 года в самый разгар инди-рока и "манчестерской волны", совсем молодая группа из Манчестера отправляется в близь Ливерпуля, для того чтобы попасть на концерт другой группы из Манчестера, уже ставшей культовой для всей Великобритании. Титс, Додж, Малыш Газ, Зиппи и Пэнфолд мечтают не только увидеть в живую своих кумиров - The Stone Roses, на вечеринке, которая обещает собрать более 30 тысяч человек, и стать наиважнейшим событием для всего мира, но и вручить им свою демо-запись, чтобы в будущем, выступать с ними на одной сцене.перевёл диалоги и песни - Владимир Блинов aka indieART.СЭМПЛ: Тот самый момент, когда время и место - особенные.
    Чуваки играют свой хит и пишут демо-кассету Ten Mile Smile.
    Качество видео: HDRip-AVC
    Формат видео: MKV
    Видео: AVC, 2474 Кбит/с, 1152x488 (2,35:1), 23,976 кадра/с
    Аудио: AC3, 448 Кбит/с (6 каналов), 48 КГц, 16 бит | English
    Формат субтитров: hardsub (неотключаемые)

    MediaInfo

    Общее
    Уникальный идентификатор : 178235062463196726992884801344527501642 (0x8616D30B782E37E185CFD790E699894A)
    Полное имя : Спайк Айленд (2012) sub indieART [В.Блинов].mkv
    Формат : Matroska
    Версия формата : Version 4 / Version 2
    Размер файла : 2,14 Гбайт
    Продолжительность : 1 ч. 44 м.
    Общий поток : 2924 Кбит/сек
    Дата кодирования : UTC 2015-05-12 01:46:52
    Программа кодирования : mkvmerge v7.2.0 ('On Every Street') 64bit built on Sep 13 2014 15:52:10
    Библиотека кодирования : libebml v1.3.0 + libmatroska v1.4.1
    Видео
    Идентификатор : 1
    Формат : AVC
    Формат/Информация : Advanced Video Codec
    Профиль формата : High@L4.0
    Параметр CABAC формата : Да
    Параметр ReFrames формата : 11 кадров
    Идентификатор кодека : V_MPEG4/ISO/AVC
    Продолжительность : 1 ч. 44 м.
    Битрейт : 2474 Кбит/сек
    Ширина : 1152 пикселя
    Высота : 488 пикселей
    Соотношение сторон : 2,35:1
    Режим частоты кадров : Постоянный
    Частота кадров : 23,976 кадра/сек
    Цветовое пространство : YUV
    Субдискретизация насыщенности : 4:2:0
    Битовая глубина : 8 бит
    Тип развёртки : Прогрессивная
    Бит/(Пиксели*Кадры) : 0.184
    Размер потока : 1,77 Гбайт (83%)
    Заголовок : sub indieART
    Библиотека кодирования : x264 core 130 r2273 b3065e6
    Настройки программы : cabac=1 / ref=11 / deblock=1:-2:-1 / analyse=0x3:0x133 / me=umh / subme=10 / psy=1 / psy_rd=1.00:0.20 / mixed_ref=1 / me_range=24 / chroma_me=1 / trellis=2 / 8x8dct=1 / cqm=0 / deadzone=21,11 / fast_pskip=0 / chroma_qp_offset=-3 / threads=6 / lookahead_threads=1 / sliced_threads=0 / nr=0 / decimate=0 / interlaced=0 / bluray_compat=0 / constrained_intra=0 / bframes=4 / b_pyramid=2 / b_adapt=2 / b_bias=0 / direct=3 / weightb=1 / open_gop=0 / weightp=2 / keyint=250 / keyint_min=23 / scenecut=40 / intra_refresh=0 / rc_lookahead=60 / rc=2pass / mbtree=1 / bitrate=2474 / ratetol=1.0 / qcomp=0.60 / qpmin=0 / qpmax=69 / qpstep=4 / cplxblur=20.0 / qblur=0.5 / ip_ratio=1.40 / aq=1:1.00
    Язык : English
    Default : Да
    Forced : Нет
    Аудио
    Идентификатор : 2
    Формат : AC-3
    Формат/Информация : Audio Coding 3
    Расширение режима : CM (complete main)
    Параметр Endianness формата : Big
    Идентификатор кодека : A_AC3
    Продолжительность : 1 ч. 44 м.
    Вид битрейта : Постоянный
    Битрейт : 448 Кбит/сек
    Каналы : 6 каналов
    Расположение каналов : Front: L C R, Side: L R, LFE
    Частота : 48,0 КГц
    Битовая глубина : 16 бит
    Метод сжатия : С потерями
    Размер потока : 336 Мбайт (15%)
    Язык : English
    Default : Да
    Forced : Нет

    Скриншот c названием фильма

    Скриншоты

    Скачать .torrent

    Скачать торрент-файл бесплатно и на максимальной скорости!

    Как скачивать? · Что такое торрент? · Рейтинг и ограничения

    !ВНИМАНИЕ!
    Сайт не распространяет и не хранит электронные версии произведений, а занимается лишь лишь предоставлением доступа к создаваемому пользователями каталогу ссылок на торрент-файлы, которые содержат только списки хеш-сумм, убедительная просьба с жалобами обращаться напрямую к пользователю. Файлы для обмена на трекере предоставлены пользователями сайта, и администрация не несёт ответственности за их содержание. Просьба не заливать файлы, защищенные авторскими правами, а также файлы нелегального содержания!


    _________________
    [Профиль] [ЛС]
    Показать сообщения:    
    Ответить на тему

    Текущее время: Сегодня, в 22:03

    Часовой пояс: GMT + 2



    Вы не можете начинать темы
    Вы не можете отвечать на сообщения
    Вы не можете редактировать свои сообщения
    Вы не можете удалять свои сообщения
    Вы не можете голосовать в опросах
    Вы не можете прикреплять файлы к сообщениям
    Вы не можете скачивать файлы