BitTorrentTracker PerecTracker.org
BitTorrentTracker PerecTracker.org
    
Регистрация  ·  Вход
 
 · 
Забыли пароль?

  • Голодные игры / The Hunger Games (Гэри Росс) [2012, США, фантастика, триллер, приключения, BDRip HD (720p), SD] DUB, Original + SUB (rus, eng)

    Ответить на тему
     
    Автор Сообщение

    rechyn

    Создавать темы 11-Май-2015 22:54

           

    [Цитировать]

    Голодные игры / The Hunger Games
    "Да пребудет с вами удача"
    7.344 / 10
    -Год выпуска: 2012
    Страна: США
    Жанр: фантастика, триллер, приключения
    Продолжительность: 142 мин.
    Перевод: Профессиональный дублированный перевод
    Оригинальная аудиодорожка: Есть
    Cубтитры: Русские полные, английские полные, английские полные SDH
    Режиссёр: Гэри Росс
    Сценарий: Сьюзен Коллинз, Гэри Росс, Билли Рэй
    Продюсер: Нина Джейкобсон, Джон Килик, Диана Альварез
    Оператор: Том Стерн
    Композитор: Джеймс Ньютон Ховард
    Художник: Филип Мессина, Джон Коллинз, Роберт Фечтман
    Монтаж: Кристофер С. Кэпп, Стивен Миррионе, Жюльетт Вельфлин
    В ролях: Дженнифер Лоуренс, Джош Хатчерсон, Александр Людвиг, Лиам Хемсворт, Вуди Харрельсон, Стэнли Туччи, Ленни Кравиц, Элизабет Бэнкс, Уэс Бентли, Дональд Сазерленд
    Роли дублировали: Наталья Грачева, Евгений Вальц, Григорий Калинин, Артур Бесчастный, Дмитрий Полонский
    Бюджет: $78 000 000
    Сборы в США: $408 010 692
    Сборы в мире: + $283 237 076 = $691 247 768
    Сборы в России: $13 405 279
    Мировая премьера: 12 марта 2012
    Премьера (РФ): 22 марта 2012, Вольга
    Релиз на Blu-Ray: 23 августа 2012, Вольга
    Релиз на DVD: 23 августа 2012, Вольга
    Описание: Будущее. Деспотичное государство ежегодно устраивает показательные игры на выживание, за которыми в прямом эфире следит весь мир. Жребий участвовать в Играх выпадает юной Китнисс и тайно влюбленному в нее Питу. Они знакомы с детства, но теперь должны стать врагами. Ведь по нерушимому закону Голодных игр победить может только один из 24 участников. Судьям не важно кто выиграет, главное - зрелище. И на этот раз зрелище будет незабываемым.-Качество исходника: Blu-Ray 1080p
    Качество: BDRip
    Тип: 480p 720p
    Контейнер: m4v
    Видео: 640x356 анаморф 852x356 at 23.976 fps, MPEG-4 AVC, ~1600 kbps avg
    Видео: 1280x532 at 23.976 fps, MPEG-4 AVC, ~5500 kbps avg
    Аудио#1: Russian: 48 kHz, ААС, 2/0 (L,R), ~128.00 / 160.00 kbps avg |Дубляж|
    Аудио#2: English: 48 kHz, ААС, 2/0 (L,R), ~128.00 / 160.00 kbps avg
    Аудио#3: Russian: 48 kHz, AC3, 3/2 (L,C,R,l,r) + LFE ch, ~640.00 kbps avg |Дубляж, iTunes Russia|
    Аудио#4: English: 48 kHz, AC3, 3/2 (L,C,R,l,r) + LFE ch, ~640.00 kbps avg
    Субтитры №1: Russian: |Полные|
    Субтитры №2: English: |Полные|
    Субтитры №3: English: |Полные, SDH|-

    Знаете ли Вы, что...
  • Фильм снят по мотивам романа Сьюзен Коллинз «Голодные игры» (The Hunger Games, 2008).
  • Английские дистрибьюторы потребовали от компании Lionsgate вырезать некоторые особо жестокие сцены насилия, в результате чего фильм стал короче на семь секунд.
  • Ленни Кравиц, утвержденный на роль Цинны, стилиста Китнисс, на самом деле вдвое старше своего героя.
  • Александр Людвиг, утвержденный на роль Катона, мог сыграть роль Пита Мелларка.
  • Стивен Содерберг стал режиссером второй съемочной группы фрагмента, относящегося к событиям в Одиннадцатом дистрикте.
  • На роль Китнисс было рассмотрено около 30 актрис, среди них — Хейли Стайнфелд, Эбигейл Бреслин, Эмма Робертс, Сирша Ронан, Хлоя Грейс Морец, Линдси Фонсека, Джоделль Ферланд, Эмили Браунинг, Шейлин Вудли и Кая Скоделарио.
  • Кроме Джоша Хатчерсона, претендентами на роль Пита были Хантер Пэрриш, Лукас Тилл и Эван Питерс.
  • Кроме Лиама Хемсворта, претендентами на роль Гейла были Дэвид Генри, Робби Амелли Дрю Рой.
  • Дженнифер Лоуренс потребовалось 3 дня, чтобы согласиться на роль Китнисс Эвердин.
    Ошибки в фильме
  • В начале фильма Китнисс достает из дерева лук с уже натянутой тетивой. Любой, кто хоть как-то занимался стрельбой из лука, знает, что лук не хранят с натянутой тетивой (да еще и на улице), он от этого сильно портится.
    -

    iTunes Meta Tags for country ru

    Name: Голодные игры
    Artist: Гэри Росс
    Genre: Action & Adventure
    Release Date: 2012-03-12T08:00:00Z
    Description: Будущее. Деспотичное государство ежегодно устраивает показательные игры на выживание, за которыми в прямом эфире следит весь мир. Жребий участвовать в Играх выпадает юной Китнисс и тайно влюбленному в нее Питу...
    Long Description: Будущее. Деспотичное государство ежегодно устраивает показательные игры на выживание, за которыми в прямом эфире следит весь мир. Жребий участвовать в Играх выпадает юной Китнисс и тайно влюбленному в нее Питу. Они знакомы с детства, но теперь должны стать врагами. Ведь по нерушимому закону Голодных игр победить может только один из 24 участников. Судьям не важно кто выиграет, главное - зрелище. И на этот раз зрелище будет незабываемым.
    Rating: 16+
    Studio: Lions Gate Films Inc.
    Cast: Дженнифер Лоуренс, Джош Хатчерсон, Александр Людвиг, Лиам Хемсворт, Вуди Харрельсон, Стэнли Туччи, Ленни Кравиц, Элизабет Бэнкс, Уэс Бентли, Дональд Сазерленд
    Director: Гэри Росс
    Producers: Нина Джейкобсон, Джон Килик, Диана Альварез
    Screenwriters: Сьюзен Коллинз, Гэри Росс, Билли Рэй
    Copyright: © 2012 Lions Gate Films Inc.
    contentID: 623208741
    XID: Apple:vendor_id:2012-468581
    Sort Name: Голодные игры

    iTunes Meta Tags for country us

    Name: The Hunger Games
    Artist: Gary Ross
    Genre: Action & Adventure
    Release Date: 2012-03-12T08:00:00Z
    Description: Будущее. Деспотичное государство ежегодно устраивает показательные игры на выживание, за которыми в прямом эфире следит весь мир. Жребий участвовать в Играх выпадает юной Китнисс и тайно влюбленному в нее Питу...
    Long Description: Будущее. Деспотичное государство ежегодно устраивает показательные игры на выживание, за которыми в прямом эфире следит весь мир. Жребий участвовать в Играх выпадает юной Китнисс и тайно влюбленному в нее Питу. Они знакомы с детства, но теперь должны стать врагами. Ведь по нерушимому закону Голодных игр победить может только один из 24 участников. Судьям не важно кто выиграет, главное - зрелище. И на этот раз зрелище будет незабываемым.
    Rating: PG-13
    Rating Annotation: Rated RG-13 for intense violence thematic material and disturbing images - all involving teens.
    Studio: Lionsgate
    Cast: Дженнифер Лоуренс, Джош Хатчерсон, Александр Людвиг, Лиам Хемсворт, Вуди Харрельсон, Стэнли Туччи, Ленни Кравиц, Элизабет Бэнкс, Уэс Бентли, Дональд Сазерленд
    Director: Гэри Росс
    Producers: Нина Джейкобсон, Джон Килик, Диана Альварез
    Screenwriters: Сьюзен Коллинз, Гэри Росс, Билли Рэй
    Copyright: © 2012 Lions Gate Films Inc. All Rights Reserved.
    contentID: 521035514
    XID: Apple:vendor_id:2012-468581
    Sort Name: Hunger Games

    MediaInfo 480p Release

    General
    Complete name : The Hunger Games.m4v
    Format : MPEG-4
    Codec ID : M4V
    File size : 1.86 GiB
    Duration : 2h 22mn
    Overall bit rate mode : Variable
    Overall bit rate : 1 868 Kbps
    Movie name : The Hunger Games
    Performer : Gary Ross
    Director : Гэри Росс
    Actor : Дженнифер Лоуренс / Джош Хатчерсон / Александр Людвиг / Лиам Хемсворт / Вуди Харрельсон / Стэнли Туччи / Ленни Кравиц / Элизабет Бэнкс / Уэс Бентли / Дональд Сазерленд
    Screenplay by : Сьюзен Коллинз / Гэри Росс / Билли Рэй
    Producer : Нина Джейкобсон / Джон Килик / Диана Альварез
    Production studio : Lionsgate
    Genre : Action & Adventure
    ContentType : Short Film
    Description : Будущее. Деспотичное государство ежегодно устраивает показательные игры на выживание, за которыми в прямом эфире следит весь мир. Жребий участвовать в Играх выпадает юной Китнисс и тайно влюбленному в нее Питу...
    Recorded date : UTC 2012-03-12 08:00:00
    Encoded date : UTC 2014-09-04 13:15:28
    Tagged date : UTC 2014-09-04 13:20:39
    Copyright : © 2012 Lions Gate Films Inc. All Rights Reserved.
    Cover : Yes
    Rating : None
    Title/Sort : Hunger Games
    LongDescription : Будущее. Деспотичное государство ежегодно устраивает показательные игры на выживание, за которыми в прямом эфире следит весь мир. Жребий участвовать в Играх выпадает юной Китнисс и тайно влюбленному в нее Питу. Они знакомы с детства, но теперь должны стать врагами. Ведь по нерушимому закону Голодных игр победить может только один из 24 участников. Судьям не важно кто выиграет, главное - зрелище. И на этот раз зрелище будет незабываемым.
    AppleStoreCatalogID : 521035514
    Vendor : Apple:vendor_id:2012-468581
    ContentRating : mpaa|PG-13|300|Rated RG-13 for intense violence thematic material and disturbing images - all involving teens.
    Video #1
    ID : 1
    Format : AVC
    Format/Info : Advanced Video Codec
    Format profile : Baseline@L3
    Format settings, CABAC : No
    Format settings, ReFrames : 2 frames
    Codec ID : avc1
    Codec ID/Info : Advanced Video Coding
    Duration : 2h 22mn
    Bit rate : 1 600 Kbps
    Width : 640 pixels
    Height : 356 pixels
    Display aspect ratio : 2.40:1
    Frame rate mode : Variable
    Frame rate : 23.976 fps
    Minimum frame rate : 23.810 fps
    Maximum frame rate : 24.390 fps
    Color space : YUV
    Chroma subsampling : 4:2:0
    Bit depth : 8 bits
    Scan type : Progressive
    Bits/(Pixel*Frame) : 0.293
    Stream size : 1.59 GiB (85%)
    Title : Main Program
    Writing library : x264 core 130 r2273 b3065e6
    Encoding settings : cabac=0 / ref=2 / deblock=1:0:0 / analyse=0x1:0x111 / me=umh / subme=6 / psy=1 / psy_rd=1.00:0.00 / mixed_ref=1 / me_range=16 / chroma_me=1 / trellis=0 / 8x8dct=0 / cqm=0 / deadzone=21,11 / fast_pskip=1 / chroma_qp_offset=-2 / threads=12 / lookahead_threads=2 / sliced_threads=0 / nr=0 / decimate=1 / interlaced=0 / bluray_compat=0 / constrained_intra=0 / bframes=0 / weightp=0 / keyint=240 / keyint_min=24 / scenecut=40 / intra_refresh=0 / rc_lookahead=40 / rc=2pass / mbtree=1 / bitrate=1600 / ratetol=1.0 / qcomp=0.60 / qpmin=0 / qpmax=69 / qpstep=4 / cplxblur=20.0 / qblur=0.5 / vbv_maxrate=5000 / vbv_bufsize=5000 / nal_hrd=none / ip_ratio=1.40 / aq=1:1.00
    Language : English
    Encoded date : UTC 2014-09-04 13:15:28
    Tagged date : UTC 2014-09-04 13:17:46
    Color range : Limited
    Color primaries : BT.709
    Transfer characteristics : BT.709
    Matrix coefficients : BT.709
    Video #2
    ID : 8
    Format : JPEG
    Codec ID : jpeg
    Duration : 2h 22mn
    Bit rate mode : Variable
    Bit rate : 619 bps
    Width : 640 pixels
    Height : 267 pixels
    Display aspect ratio : 2.40:1
    Frame rate mode : Variable
    Frame rate : 0.002 fps
    Minimum frame rate : 0.001 fps
    Maximum frame rate : 0.003 fps
    Color space : YUV
    Chroma subsampling : 4:2:0
    Bit depth : 8 bits
    Compression mode : Lossy
    Bits/(Pixel*Frame) : 1.811
    Stream size : 604 KiB (0%)
    Title : Chapter Images
    Language : English
    Encoded date : UTC 2014-09-04 13:19:59
    Tagged date : UTC 2014-09-04 13:20:00
    Audio #1
    ID : 2
    Format : AAC
    Format/Info : Advanced Audio Codec
    Format profile : LC
    Codec ID : 40
    Duration : 2h 22mn
    Bit rate mode : Variable
    Bit rate : 132 Kbps
    Maximum bit rate : 213 Kbps
    Channel(s) : 2 channels
    Channel positions : Front: L R
    Sampling rate : 48.0 KHz
    Compression mode : Lossy
    Stream size : 135 MiB (7%)
    Title : Russian Stereo
    Language : Russian
    Encoded date : UTC 2014-09-04 13:15:28
    Tagged date : UTC 2014-09-04 13:19:55
    Audio #2
    ID : 3
    Format : AAC
    Format/Info : Advanced Audio Codec
    Format profile : LC
    Codec ID : 40
    Duration : 2h 22mn
    Bit rate mode : Variable
    Bit rate : 132 Kbps
    Maximum bit rate : 211 Kbps
    Channel(s) : 2 channels
    Channel positions : Front: L R
    Sampling rate : 48.0 KHz
    Compression mode : Lossy
    Stream size : 135 MiB (7%)
    Title : English Stereo
    Language : English
    Encoded date : UTC 2014-09-04 13:15:28
    Tagged date : UTC 2014-09-04 13:19:55
    Text #1
    ID : 4
    Format : Timed Text
    Muxing mode : sbtl
    Codec ID : tx3g
    Duration : 2h 12mn
    Bit rate mode : Variable
    Bit rate : 58 bps
    Stream size : 56.8 KiB (0%)
    Title : Russian Subtitle
    Language : Russian
    Encoded date : UTC 2014-09-04 13:15:28
    Tagged date : UTC 2014-09-04 13:19:53
    Text #2
    ID : 5
    Format : Timed Text
    Muxing mode : sbtl
    Codec ID : tx3g
    Duration : 2h 12mn
    Bit rate mode : Variable
    Bit rate : 43 bps
    Stream size : 41.4 KiB (0%)
    Title : English Subtitle
    Language : English
    Encoded date : UTC 2014-09-04 13:15:28
    Tagged date : UTC 2014-09-04 13:19:53
    Text #3
    ID : 6
    Format : Timed Text
    Muxing mode : sbtl
    Codec ID : tx3g
    Duration : 2h 12mn
    Bit rate mode : Variable
    Bit rate : 47 bps
    Stream size : 45.4 KiB (0%)
    Title : English SDH Subtitle
    Language : English
    Encoded date : UTC 2014-09-04 13:15:28
    Tagged date : UTC 2014-09-04 13:19:53
    Menu #1
    00:00:00.000 : District 12
    00:10:05.813 : Check In
    00:18:00.078 : Try to Win
    00:25:05.879 : Advise
    00:31:12.662 : First Look
    00:43:28.564 : Shoot Straight
    00:50:38.702 : Girl On Fire
    00:56:58.915 : Special Girl
    01:06:57.763 : Countdown
    01:15:58.970 : At the Edge
    01:22:06.046 : Very Lethal
    01:29:00.418 : Not Going to Hurt You
    01:38:00.749 : Trapped
    01:43:19.192 : Young Love
    01:57:56.611 : Only Team
    02:09:26.550 : Star Crossed Lovers
    Menu #2
    ID : 7
    Codec ID : text
    Duration : 2h 22mn
    Title : Chapter Titles
    Language : English
    Encoded date : UTC 2014-09-04 13:19:55
    Tagged date : UTC 2014-09-04 13:19:55
    00:00:00.000 : District 12
    00:10:05.813 : Check In
    00:18:00.078 : Try to Win
    00:25:05.879 : Advise
    00:31:12.662 : First Look
    00:43:28.564 : Shoot Straight
    00:50:38.702 : Girl On Fire
    00:56:58.915 : Special Girl
    01:06:57.763 : Countdown
    01:15:58.970 : At the Edge
    01:22:06.046 : Very Lethal
    01:29:00.418 : Not Going to Hurt You
    01:38:00.749 : Trapped
    01:43:19.192 : Young Love
    01:57:56.611 : Only Team
    02:09:26.550 : Star Crossed Lovers
    Bit rate mode : VBR

    MediaInfo 720p Release

    General
    Complete name : The Hunger Games (HD).m4v
    Format : MPEG-4
    Codec ID : M4V
    File size : 7.09 GiB
    Duration : 2h 22mn
    Overall bit rate mode : Variable
    Overall bit rate : 7 107 Kbps
    Movie name : The Hunger Games
    Performer : Gary Ross
    Director : Гэри Росс
    Actor : Дженнифер Лоуренс / Джош Хатчерсон / Александр Людвиг / Лиам Хемсворт / Вуди Харрельсон / Стэнли Туччи / Ленни Кравиц / Элизабет Бэнкс / Уэс Бентли / Дональд Сазерленд
    Screenplay by : Сьюзен Коллинз / Гэри Росс / Билли Рэй
    Producer : Нина Джейкобсон / Джон Килик / Диана Альварез
    Production studio : Lionsgate
    Genre : Action & Adventure
    ContentType : Short Film
    Description : Будущее. Деспотичное государство ежегодно устраивает показательные игры на выживание, за которыми в прямом эфире следит весь мир. Жребий участвовать в Играх выпадает юной Китнисс и тайно влюбленному в нее Питу...
    Recorded date : UTC 2012-03-12 08:00:00
    Encoded date : UTC 2014-09-04 06:59:59
    Tagged date : UTC 2014-09-04 08:41:16
    Copyright : © 2012 Lions Gate Films Inc. All Rights Reserved.
    Cover : Yes
    Rating : None
    Title/Sort : Hunger Games
    LongDescription : Будущее. Деспотичное государство ежегодно устраивает показательные игры на выживание, за которыми в прямом эфире следит весь мир. Жребий участвовать в Играх выпадает юной Китнисс и тайно влюбленному в нее Питу. Они знакомы с детства, но теперь должны стать врагами. Ведь по нерушимому закону Голодных игр победить может только один из 24 участников. Судьям не важно кто выиграет, главное - зрелище. И на этот раз зрелище будет незабываемым.
    HDVideo : Yes
    AppleStoreCatalogID : 521035514
    Vendor : Apple:vendor_id:2012-468581
    ContentRating : mpaa|PG-13|300|Rated RG-13 for intense violence thematic material and disturbing images - all involving teens.
    Video #1
    ID : 1
    Format : AVC
    Format/Info : Advanced Video Codec
    Format profile : High@L3.1
    Format settings, CABAC : No
    Format settings, ReFrames : 3 frames
    Codec ID : avc1
    Codec ID/Info : Advanced Video Coding
    Duration : 2h 22mn
    Bit rate : 5 500 Kbps
    Width : 1 280 pixels
    Height : 532 pixels
    Display aspect ratio : 2.40:1
    Frame rate mode : Variable
    Frame rate : 23.976 fps
    Minimum frame rate : 23.810 fps
    Maximum frame rate : 24.390 fps
    Color space : YUV
    Chroma subsampling : 4:2:0
    Bit depth : 8 bits
    Scan type : Progressive
    Bits/(Pixel*Frame) : 0.337
    Stream size : 5.47 GiB (77%)
    Title : Main Program
    Writing library : x264 core 130 r2273 b3065e6
    Encoding settings : cabac=0 / ref=3 / deblock=1:-2:-2 / analyse=0x3:0x113 / me=umh / subme=9 / psy=1 / psy_rd=1.20:0.25 / mixed_ref=1 / me_range=32 / chroma_me=1 / trellis=0 / 8x8dct=1 / cqm=0 / deadzone=6,6 / fast_pskip=0 / chroma_qp_offset=-2 / threads=12 / lookahead_threads=1 / sliced_threads=0 / nr=0 / decimate=0 / interlaced=0 / bluray_compat=0 / constrained_intra=0 / bframes=3 / b_pyramid=0 / b_adapt=2 / b_bias=0 / direct=1 / weightb=0 / open_gop=0 / weightp=0 / keyint=240 / keyint_min=24 / scenecut=40 / intra_refresh=0 / rc_lookahead=40 / rc=2pass / mbtree=1 / bitrate=5500 / ratetol=1.0 / qcomp=0.80 / qpmin=0 / qpmax=69 / qpstep=4 / cplxblur=20.0 / qblur=0.5 / vbv_maxrate=9500 / vbv_bufsize=9500 / nal_hrd=none / ip_ratio=1.10 / aq=1:0.60
    Language : English
    Encoded date : UTC 2014-09-04 06:59:59
    Tagged date : UTC 2014-09-04 08:28:17
    Color range : Limited
    Color primaries : BT.709
    Transfer characteristics : BT.709
    Matrix coefficients : BT.709
    Video #2
    ID : 10
    Format : JPEG
    Codec ID : jpeg
    Duration : 2h 22mn
    Bit rate mode : Variable
    Bit rate : 676 bps
    Width : 640 pixels
    Height : 266 pixels
    Display aspect ratio : 2.40:1
    Frame rate mode : Variable
    Frame rate : 0.002 fps
    Minimum frame rate : 0.001 fps
    Maximum frame rate : 0.003 fps
    Color space : YUV
    Chroma subsampling : 4:2:0
    Bit depth : 8 bits
    Compression mode : Lossy
    Bits/(Pixel*Frame) : 1.985
    Stream size : 660 KiB (0%)
    Title : Chapter Images
    Language : English
    Encoded date : UTC 2014-09-04 08:36:33
    Tagged date : UTC 2014-09-04 08:36:33
    Audio #1
    ID : 2
    Format : AAC
    Format/Info : Advanced Audio Codec
    Format profile : LC
    Codec ID : 40
    Duration : 2h 22mn
    Bit rate mode : Variable
    Bit rate : 166 Kbps
    Maximum bit rate : 255 Kbps
    Channel(s) : 2 channels
    Channel positions : Front: L R
    Sampling rate : 48.0 KHz
    Compression mode : Lossy
    Stream size : 169 MiB (2%)
    Title : Russian Stereo
    Language : Russian
    Encoded date : UTC 2014-09-04 06:59:59
    Tagged date : UTC 2014-09-04 07:08:19
    Audio #2
    ID : 3
    Format : AAC
    Format/Info : Advanced Audio Codec
    Format profile : LC
    Codec ID : 40
    Duration : 2h 22mn
    Bit rate mode : Variable
    Bit rate : 165 Kbps
    Maximum bit rate : 261 Kbps
    Channel(s) : 2 channels
    Channel positions : Front: L R
    Sampling rate : 48.0 KHz
    Compression mode : Lossy
    Stream size : 168 MiB (2%)
    Title : English Stereo
    Language : English
    Encoded date : UTC 2014-09-04 06:59:59
    Tagged date : UTC 2014-09-04 07:07:48
    Audio #3
    ID : 4
    Format : AC-3
    Format/Info : Audio Coding 3
    Mode extension : CM (complete main)
    Format settings, Endianness : Big
    Codec ID : ac-3
    Duration : 2h 22mn
    Bit rate mode : Constant
    Bit rate : 640 Kbps
    Channel(s) : 6 channels
    Channel positions : Front: L C R, Side: L R, LFE
    Sampling rate : 48.0 KHz
    Bit depth : 16 bits
    Compression mode : Lossy
    Stream size : 653 MiB (9%)
    Title : Russian DD 5.1
    Language : Russian
    Encoded date : UTC 2014-09-04 06:59:59
    Tagged date : UTC 2014-09-04 07:01:30
    Audio #4
    ID : 5
    Format : AC-3
    Format/Info : Audio Coding 3
    Mode extension : CM (complete main)
    Format settings, Endianness : Big
    Codec ID : ac-3
    Duration : 2h 22mn
    Bit rate mode : Constant
    Bit rate : 640 Kbps
    Channel(s) : 6 channels
    Channel positions : Front: L C R, Side: L R, LFE
    Sampling rate : 48.0 KHz
    Bit depth : 16 bits
    Compression mode : Lossy
    Stream size : 653 MiB (9%)
    Title : English DD 5.1
    Language : English
    Encoded date : UTC 2014-09-04 06:59:59
    Tagged date : UTC 2014-09-04 07:01:30
    Text #1
    ID : 6
    Format : Timed Text
    Muxing mode : sbtl
    Codec ID : tx3g
    Duration : 2h 12mn
    Bit rate mode : Variable
    Bit rate : 58 bps
    Stream size : 56.8 KiB (0%)
    Title : Russian Subtitle
    Language : Russian
    Encoded date : UTC 2014-09-04 06:59:59
    Tagged date : UTC 2014-09-04 08:36:25
    Text #2
    ID : 7
    Format : Timed Text
    Muxing mode : sbtl
    Codec ID : tx3g
    Duration : 2h 12mn
    Bit rate mode : Variable
    Bit rate : 43 bps
    Stream size : 41.4 KiB (0%)
    Title : English Subtitle
    Language : English
    Encoded date : UTC 2014-09-04 06:59:59
    Tagged date : UTC 2014-09-04 08:36:25
    Text #3
    ID : 8
    Format : Timed Text
    Muxing mode : sbtl
    Codec ID : tx3g
    Duration : 2h 12mn
    Bit rate mode : Variable
    Bit rate : 47 bps
    Stream size : 45.4 KiB (0%)
    Title : English SDH Subtitle
    Language : English
    Encoded date : UTC 2014-09-04 06:59:59
    Tagged date : UTC 2014-09-04 08:36:25
    Menu #1
    00:00:00.000 : District 12
    00:10:05.813 : Check In
    00:18:00.078 : Try to Win
    00:25:05.879 : Advise
    00:31:12.662 : First Look
    00:43:28.564 : Shoot Straight
    00:50:38.702 : Girl On Fire
    00:56:58.915 : Special Girl
    01:06:57.763 : Countdown
    01:15:58.970 : At the Edge
    01:22:06.046 : Very Lethal
    01:29:00.418 : Not Going to Hurt You
    01:38:00.749 : Trapped
    01:43:19.192 : Young Love
    01:57:56.611 : Only Team
    02:09:26.550 : Star Crossed Lovers
    Menu #2
    ID : 9
    Codec ID : text
    Duration : 2h 22mn
    Title : Chapter Titles
    Language : English
    Encoded date : UTC 2014-09-04 08:36:25
    Tagged date : UTC 2014-09-04 08:36:25
    00:00:00.000 : District 12
    00:10:05.813 : Check In
    00:18:00.078 : Try to Win
    00:25:05.879 : Advise
    00:31:12.662 : First Look
    00:43:28.564 : Shoot Straight
    00:50:38.702 : Girl On Fire
    00:56:58.915 : Special Girl
    01:06:57.763 : Countdown
    01:15:58.970 : At the Edge
    01:22:06.046 : Very Lethal
    01:29:00.418 : Not Going to Hurt You
    01:38:00.749 : Trapped
    01:43:19.192 : Young Love
    01:57:56.611 : Only Team
    02:09:26.550 : Star Crossed Lovers
    Bit rate mode : VBR

    Скриншоты 480p Release

    Скриншоты 720p Release

    Цитата:
    Цитата:

    • Если мне не изменяет память, это РИП делал ovsyannikov.ivan за что ему спасибо;
    • Логов кодирования не сохранилось, но если они есть у ovsyannikov.ivan и он их даст, то они будут добавлены в раздачу.
    -

    Релиз подготовлен для просмотра на Apple TV, iPad, iPhone, iPod Touch.
    Для просмотра данного релиза на компьютере с ОС Windows рекомендуется использовать VLC media player
    Скачать .torrent

    Скачать торрент-файл бесплатно и на максимальной скорости!

    Как скачивать? · Что такое торрент? · Рейтинг и ограничения

    !ВНИМАНИЕ!
    Сайт не распространяет и не хранит электронные версии произведений, а занимается лишь лишь предоставлением доступа к создаваемому пользователями каталогу ссылок на торрент-файлы, которые содержат только списки хеш-сумм, убедительная просьба с жалобами обращаться напрямую к пользователю. Файлы для обмена на трекере предоставлены пользователями сайта, и администрация не несёт ответственности за их содержание. Просьба не заливать файлы, защищенные авторскими правами, а также файлы нелегального содержания!


  • _________________
    [Профиль] [ЛС]
    Показать сообщения:    
    Ответить на тему

    Текущее время: Сегодня, в 07:50

    Часовой пояс: GMT + 2



    Вы не можете начинать темы
    Вы не можете отвечать на сообщения
    Вы не можете редактировать свои сообщения
    Вы не можете удалять свои сообщения
    Вы не можете голосовать в опросах
    Вы не можете прикреплять файлы к сообщениям
    Вы не можете скачивать файлы