BitTorrentTracker PerecTracker.org
BitTorrentTracker PerecTracker.org
    
Регистрация  ·  Вход
 
 · 
Забыли пароль?

  • Дачная поездка сержанта Цыбули (Николай Литус, Виталий Шунько) [1979, военный фильм, комедия, приключения, DVB]

    Ответить на тему
     
    Автор Сообщение

    rechyn

    Создавать темы 11-Май-2015 19:05

           

    [Цитировать]

    Дачная поездка сержанта Цыбули
    Жанр: военный фильм, комедия, приключения
    Год выпуска: 1979
    Продолжительность: 01:12:35
    Режиссёр: Николай Литус, Виталий Шунько
    Премьера (мир): 22 декабря 1980
    Релиз на DVD: 19 февраля 2009, «Мьюзик-Трейд»

    В ролях: Сергей Иванов, Владимир Алексеенко, Михаил Кокшенов, Надежда Смирнова, Володя Чубарев, Михаил Львов, Нина Реус, Степан Олексенко, Сергей Свечников, Маргарита Криницына, Николай Литус, Борис Сабуров, Евгений Мажуга, Полина Куманченко, Сергей Шеметило
    Описание: Разведчик сержант Цыбуля, успешно выполнив очередное задание, снова отправляется в тыл к немцам. Теперь ему поручено доставить партизанам медикаменты, продовольствие и взрывчатку.
    Доп. информация: Запись потока *.ts со спутника ABS-2, 75° в.д., ремукс в *.mpg программой VideoReDo.
    Качество видео: DVB
    Формат видео: MPEG-PS
    Видео: MPEG Video, 720(768)x576 (4:3), 25,000 кадров/сек, 3186 Кбит/сек
    Аудио: MPEG Audio, 48,0 КГц, 192 Кбит/сек, 2 канала

    MediaInfo

    Общее
    Полное имя : D:\Torrent\Дачная поездка сержанта Цыбули (Moskva Doverie).mpg
    Формат : MPEG-PS
    Размер файла : 1,75 Гбайт
    Продолжительность : 1 ч. 12 м.
    Режим общего битрейта : Переменный
    Общий поток : 3446 Кбит/сек
    Видео
    Идентификатор : 224 (0xE0)
    Формат : MPEG Video
    Версия формата : Version 2
    Профиль формата : Main@Main
    Параметр BVOP формата : Да
    Параметр матрицы формата : Выборочная
    Параметр GOP формата : M=3, N=12
    Продолжительность : 1 ч. 12 м.
    Вид битрейта : Переменный
    Битрейт : 3186 Кбит/сек
    Максимальный битрейт : 15,0 Мбит/сек
    Ширина : 720 пикселей
    Высота : 576 пикселей
    Соотношение сторон : 4:3
    Частота кадров : 25,000 кадров/сек
    Стандарт вещания : PAL
    Цветовое пространство : YUV
    Субдискретизация насыщенности : 4:2:0
    Битовая глубина : 8 бит
    Тип развёртки : Чересстрочная
    Порядок развёртки : Верхнее поле первое
    Метод сжатия : С потерями
    Бит/(Пиксели*Кадры) : 0.307
    Временной код первого кадра : 00:00:00:00
    Оригинал временного кода : Group of pictures header
    Размер потока : 1,61 Гбайт (92%)
    Аудио
    Идентификатор : 192 (0xC0)
    Формат : MPEG Audio
    Версия формата : Version 1
    Профиль формата : Layer 2
    Продолжительность : 1 ч. 12 м.
    Вид битрейта : Постоянный
    Битрейт : 192 Кбит/сек
    Каналы : 2 канала
    Частота : 48,0 КГц
    Метод сжатия : С потерями
    Задержка видео : 20 мс.
    Размер потока : 99,7 Мбайт (6%)

    Скриншоты

    Скачать .torrent

    Скачать торрент-файл бесплатно и на максимальной скорости!

    Как скачивать? · Что такое торрент? · Рейтинг и ограничения

    !ВНИМАНИЕ!
    Сайт не распространяет и не хранит электронные версии произведений, а занимается лишь лишь предоставлением доступа к создаваемому пользователями каталогу ссылок на торрент-файлы, которые содержат только списки хеш-сумм, убедительная просьба с жалобами обращаться напрямую к пользователю. Файлы для обмена на трекере предоставлены пользователями сайта, и администрация не несёт ответственности за их содержание. Просьба не заливать файлы, защищенные авторскими правами, а также файлы нелегального содержания!


    _________________
    [Профиль] [ЛС]
    Показать сообщения:    
    Ответить на тему

    Текущее время: Сегодня, в 00:35

    Часовой пояс: GMT + 2



    Вы не можете начинать темы
    Вы не можете отвечать на сообщения
    Вы не можете редактировать свои сообщения
    Вы не можете удалять свои сообщения
    Вы не можете голосовать в опросах
    Вы не можете прикреплять файлы к сообщениям
    Вы не можете скачивать файлы