BitTorrentTracker PerecTracker.org
BitTorrentTracker PerecTracker.org
    
Регистрация  ·  Вход
 
 · 
Забыли пароль?

  • Джемма Бовери / Gemma Bovery (Анн Фонтен / Anne Fontaine) [2014, Франция, Драма, мелодрама, HDRip] VO (Lenape)

    Ответить на тему
     
    Автор Сообщение

    Light

    Создавать темы 11-Май-2015 18:42

           

    [Цитировать]

    Джемма Бовери / Gemma Bovery-Страна: Франция
    Жанр: Драма, мелодрама
    Год выпуска: 2014
    Продолжительность: 01:39:00-Перевод: Одноголосый закадровый [Lenape]
    Cубтитры: нет-Режиссер: Анн Фонтен / Anne Fontaine-В ролях: Фабрис Лукини, Джемма Артертон, Джейсон Флеминг, Изабель Канделье, Нильс Шнайдер, Мел Райдо, Эльза Зильберштейн, Пип Торренс, Кейси Моттет Кляйн, Эдит Скоб-Описание: Писатель, которому не улыбнулся успех в Париже, возвращается в родную нормандскую деревеньку. Но она оказывается тесноватой для богатого воображения Мартена Жубера. Долгое увлечение серьезной литературой не проходит даром. Можно представить себе его волнение, когда в дом по соседству приезжает английская пара по фамилии Бовери. Их не только зовут почти как героев романа Флобера, но, кажется, они проходят тот же путь, что и их литературные визави. Беда в том, что сама Джемма не читала трагического произведения. И даже не горит желанием.-Благодарность: за перевод субтитров, по которым делалась озвучка и за описание фильма спасибо Playball
    -Sample | IMDB | КиноПоиск-Тип релиза: HDRip [исх. BDRip 1080p]
    Формат видео: AVI-Видео: 688x288 (2.39:1), 24.000 fps, XviD build 50, 920 kbps avg, 0.19 bit/pixel
    Аудио: 48 kHz, MPEG Layer 3, 2 ch, 128.00 kbps avg [Russian_VO]-Релиз группы:
    -

    MediaInfo

    General
    Complete name : D:\Мои релизы\Gemma Bovery_HDRip_[745]_VO_Lenape_RG_All_Films.avi
    Format : AVI
    Format/Info : Audio Video Interleave
    File size : 749 MiB
    Duration : 1h 39mn
    Overall bit rate : 1 058 Kbps
    Writing application : VirtualDubMod 1.5.10.3 | www.virtualdub-fr.org || (build 2550/release)
    Writing library : VirtualDubMod build 2550/release
    Video
    ID : 0
    Format : MPEG-4 Visual
    Format profile : Advanced Simple@L5
    Format settings, BVOP : Yes
    Format settings, QPel : No
    Format settings, GMC : No warppoints
    Format settings, Matrix : Custom
    Codec ID : XVID
    Codec ID/Hint : XviD
    Duration : 1h 39mn
    Bit rate : 921 Kbps
    Width : 688 pixels
    Height : 288 pixels
    Display aspect ratio : 2.35:1
    Frame rate : 24.000 fps
    Color space : YUV
    Chroma subsampling : 4:2:0
    Bit depth : 8 bits
    Scan type : Progressive
    Compression mode : Lossy
    Bits/(Pixel*Frame) : 0.194
    Stream size : 652 MiB (87%)
    Writing library : XviD 1.2.1 (UTC 2008-12-04)
    Audio
    ID : 1
    Format : MPEG Audio
    Format version : Version 1
    Format profile : Layer 3
    Codec ID : 55
    Codec ID/Hint : MP3
    Duration : 1h 38mn
    Bit rate mode : Constant
    Bit rate : 128 Kbps
    Channel(s) : 2 channels
    Sampling rate : 48.0 KHz
    Compression mode : Lossy
    Stream size : 90.6 MiB (12%)
    Alignment : Aligned on interleaves
    Interleave, duration : 42 ms (1.00 video frame)
    Interleave, preload duration : 504 ms
    Writing library : LAME3.98r
    Encoding settings : -m s -V 4 -q 2 -lowpass 17 -b 128

    Скриншоты

    Скачать .torrent

    Скачать торрент-файл бесплатно и на максимальной скорости!

    Как скачивать? · Что такое торрент? · Рейтинг и ограничения

    !ВНИМАНИЕ!
    Сайт не распространяет и не хранит электронные версии произведений, а занимается лишь лишь предоставлением доступа к создаваемому пользователями каталогу ссылок на торрент-файлы, которые содержат только списки хеш-сумм, убедительная просьба с жалобами обращаться напрямую к пользователю. Файлы для обмена на трекере предоставлены пользователями сайта, и администрация не несёт ответственности за их содержание. Просьба не заливать файлы, защищенные авторскими правами, а также файлы нелегального содержания!


    _________________
    [Профиль] [ЛС]
    Показать сообщения:    
    Ответить на тему

    Текущее время: Сегодня, в 18:29

    Часовой пояс: GMT + 2



    Вы не можете начинать темы
    Вы не можете отвечать на сообщения
    Вы не можете редактировать свои сообщения
    Вы не можете удалять свои сообщения
    Вы не можете голосовать в опросах
    Вы не можете прикреплять файлы к сообщениям
    Вы не можете скачивать файлы