BitTorrentTracker PerecTracker.org
BitTorrentTracker PerecTracker.org
    
Регистрация  ·  Вход
 
 · 
Забыли пароль?

  • Дом терпимости / The Seasoning House (Пол Хайет / Paul Hyett) [2012, Великобритания, ужасы, триллер, BDRip] VO (den904)

    Ответить на тему
     
    Автор Сообщение

    Light

    Создавать темы 11-Май-2015 18:42

           

    [Цитировать]

    Дом терпимости / The Seasoning House

    Страна: Великобритания
    Жанр: ужасы, триллер
    Год выпуска: 2012
    Продолжительность: 01:29:31
    Перевод: Одноголосый закадровый - den904
    Cубтитры: нет

    Режиссер: Пол Хайет / Paul Hyett
    В ролях: Пол Блэкуелл, Шон Пертуи, Шон Кронин, Шон Лукас, Анна Уолтон, Адриан Буше, Стюарт Бэйли, Джемма Пауэлл, Дэниэл Вивиан, Рози Дэй, Лоуренс Саундерс, Кристофер Ризин
    Описание: Фильм рассказывает о девушке Энджел, которая вынуждена работать в доме, поставляющем молодых проституток военнослужащим. Но вместо того, чтобы работать проституткой, она становится помощницей управляющего борделем Виктора. Днем в ее обязанности входит приводить проституток в порядок после того, как их неоднократно насилуют. А ночью она исследует дом со всеми его закоулками. Затем она знакомится с новенькой девочкой, и становится свидетельницей ее регулярного жестокого изнасилования. После чего в дом прибывают военные, которые похитили Энджел и убили всю ее семью, что подталкивает ее придумать план мести.--Внимание! В переводе присутствует ненормативная лексика!--Качество видео: BDRip
    Формат видео: AVI
    Видео: 720x304 (2.37:1), 25 fps, XviD build 73 ~1859 kbps avg, 0.34 bit/pixel
    Аудио: 48 kHz, AC3 Dolby Digital, 3/2 (L,C,R,l,r) + LFE ch, ~448 kbps

    Сравнение

    Существенных различий не ощущается. Главное в моей раздаче 5.1 звук
    http://perectracker.org/viewtopic.php?t=4518657
    http://screenshotcomparison.com/comparison/126313/picture:3

    MediaInfo

    Общее
    Полное имя : H:\The.Seasoning.House.2012.bdrip_[1.46]_[teko].avi
    Формат : AVI
    Формат/Информация : Audio Video Interleave
    Размер файла : 1,45 Гбайт
    Продолжительность : 1 ч. 29 м.
    Общий поток : 2317 Кбит/сек
    Программа кодирования : VirtualDubMod 1.5.10.3 | www.virtualdub-fr.org || (build 2550/release)
    Библиотека кодирования : VirtualDubMod build 2550/release
    Видео
    Идентификатор : 0
    Формат : MPEG-4 Visual
    Профиль формата : Advanced Simple@L5
    Параметр BVOP формата : 1
    Параметр QPel формата : Нет
    Параметр GMC формата : Без точки перехода
    Параметр матрицы формата : Выборочная
    Идентификатор кодека : XVID
    Идентификатор кодека/Подсказка : XviD
    Продолжительность : 1 ч. 29 м.
    Битрейт : 1859 Кбит/сек
    Ширина : 720 пикселей
    Высота : 304 пикселя
    Соотношение сторон : 2,35:1
    Частота кадров : 25,000 кадров/сек
    Цветовое пространство : YUV
    Субдискретизация насыщенности : 4:2:0
    Битовая глубина : 8 бит
    Тип развёртки : Прогрессивная
    Метод сжатия : С потерями
    Бит/(Пиксели*Кадры) : 0.340
    Размер потока : 1,16 Гбайт (80%)
    Библиотека кодирования : XviD 73
    Аудио
    Идентификатор : 1
    Формат : AC-3
    Формат/Информация : Audio Coding 3
    Расширение режима : CM (complete main)
    Параметр Endianness формата : Big
    Идентификатор кодека : 2000
    Продолжительность : 1 ч. 29 м.
    Вид битрейта : Постоянный
    Битрейт : 448 Кбит/сек
    Каналы : 6 каналов
    Расположение каналов : Front: L C R, Side: L R, LFE
    Частота : 48,0 КГц
    Битовая глубина : 16 бит
    Метод сжатия : С потерями
    Размер потока : 287 Мбайт (19%)
    Выравнивание : Разделение по промежуткам
    Продолжительность промежутка : 40 мс. (1,00 видеокадр)
    Время предзагрузки промежутка : 500 мс.

    Скриншоты

    Релиз группы:

    -
    -
    Скачать .torrent

    Скачать торрент-файл бесплатно и на максимальной скорости!

    Как скачивать? · Что такое торрент? · Рейтинг и ограничения

    !ВНИМАНИЕ!
    Сайт не распространяет и не хранит электронные версии произведений, а занимается лишь лишь предоставлением доступа к создаваемому пользователями каталогу ссылок на торрент-файлы, которые содержат только списки хеш-сумм, убедительная просьба с жалобами обращаться напрямую к пользователю. Файлы для обмена на трекере предоставлены пользователями сайта, и администрация не несёт ответственности за их содержание. Просьба не заливать файлы, защищенные авторскими правами, а также файлы нелегального содержания!


    _________________
    [Профиль] [ЛС]
    Показать сообщения:    
    Ответить на тему

    Текущее время: Сегодня, в 06:30

    Часовой пояс: GMT + 2



    Вы не можете начинать темы
    Вы не можете отвечать на сообщения
    Вы не можете редактировать свои сообщения
    Вы не можете удалять свои сообщения
    Вы не можете голосовать в опросах
    Вы не можете прикреплять файлы к сообщениям
    Вы не можете скачивать файлы