BitTorrentTracker PerecTracker.org
BitTorrentTracker PerecTracker.org
    
Регистрация  ·  Вход
 
 · 
Забыли пароль?

  • Утомленные солнцем (Никита Михалков) [1994, Россия, Франция, драма, военный, история, WEB-DL 1080p]

    Ответить на тему
     
    Автор Сообщение

    rechyn

    Создавать темы 11-Май-2015 10:18

           

    [Цитировать]

    Утомленные солнцем
    Страна: Россия, Франция
    Студия: Caméra One, Canal+ [fr], Студия Тритэ
    Жанр: драма, военный, история
    Год выпуска: 1994
    Продолжительность: 2:21:55
    Перевод: Не требуется
    Cубтитры: нет
    Оригинальная аудиодорожка: русский
    Режиссер: Никита Михалков
    В ролях: Олег Меньшиков
    Никита Михалков
    Ингеборга Дапкунайте
    Надежда Михалкова
    Андре Умански
    Вячеслав Тихонов
    Светлана Крючкова
    Владимир Ильин
    Алла Казанская
    Нина Архипова
    Описание: Солнечный летний день 1936 года. Молодая страна, полная энтузиазма, празднует 4-ю годовщину сталинского дирижаблестроения. Легендарный комдив Котов и его большая шумная семья отдыхают на даче. В старом доме собралась тьма народу: жена-красавица, непоседа-дочь, тесть — известный русский дирижер, родственники и друзья, домработницы и соседи.
    Веселье бьет через край, и мысль, что что-то в жизни может измениться, покажется всем абсурдом. Они все будут счастливы вечно! И никто, даже мудрый Котов, не хочет верить в неизбежное. В то, что этот солнечный день кончится — и не повторится уже никогда.
    Сэмпл
    Тип релиза: WEB-DL 1080p
    Контейнер: MKV
    Видео: AVC/H.264, 1912x1072 (16:9), 4947 Кбит/сек, 25.000 fps
    Аудио: AC3, 48000 Hz, 384 Кбит/сек, 5.1 ch

    MediaInfo

    General
    Unique ID : 250611016419222741761938972960776759310 (0xBC89ED14554D8B36A307179C282FA80E)
    Complete name : D:\Утомленные солнцем (1080p HD).mkv
    Format : Matroska
    Format version : Version 4 / Version 2
    File size : 5.39 GiB
    Duration : 2h 21mn
    Overall bit rate : 5 440 Kbps
    Encoded date : UTC 2015-05-10 12:27:31
    Writing application : mkvmerge v7.8.0 ('River Man') 64bit built on Mar 27 2015 16:31:37
    Writing library : libebml v1.3.1 + libmatroska v1.4.2
    DURATION : 02:21:54.784000000
    NUMBER_OF_FRAMES : 266087
    NUMBER_OF_BYTES : 408709632
    _STATISTICS_WRITING_APP : mkvmerge v7.8.0 ('River Man') 64bit built on Mar 27 2015 16:31:37
    _STATISTICS_WRITING_DATE_UT : 2015-05-10 12:27:31
    _STATISTICS_TAGS : BPS DURATION NUMBER_OF_FRAMES NUMBER_OF_BYTES
    Video
    ID : 1
    Format : AVC
    Format/Info : Advanced Video Codec
    Format profile : High@L4
    Format settings, CABAC : Yes
    Format settings, ReFrames : 4 frames
    Codec ID : V_MPEG4/ISO/AVC
    Duration : 2h 21mn
    Bit rate : 4 948 Kbps
    Width : 1 912 pixels
    Height : 1 072 pixels
    Display aspect ratio : 16:9
    Frame rate mode : Constant
    Frame rate : 25.000 fps
    Color space : YUV
    Chroma subsampling : 4:2:0
    Bit depth : 8 bits
    Scan type : Progressive
    Bits/(Pixel*Frame) : 0.097
    Stream size : 4.90 GiB (91%)
    Default : Yes
    Forced : No
    Color range : Limited
    Color primaries : BT.709
    Transfer characteristics : BT.709
    Matrix coefficients : BT.709
    Audio
    ID : 2
    Format : AC-3
    Format/Info : Audio Coding 3
    Mode extension : CM (complete main)
    Format settings, Endianness : Big
    Codec ID : A_AC3
    Duration : 2h 21mn
    Bit rate mode : Constant
    Bit rate : 384 Kbps
    Channel(s) : 6 channels
    Channel positions : Front: L C R, Side: L R, LFE
    Sampling rate : 48.0 KHz
    Compression mode : Lossy
    Stream size : 390 MiB (7%)
    Language : Russian
    Default : Yes
    Forced : No

    Скриншоты

    Торрент перезалит. Удалено сжатие заголовков.
    Скачать .torrent

    Скачать торрент-файл бесплатно и на максимальной скорости!

    Как скачивать? · Что такое торрент? · Рейтинг и ограничения

    !ВНИМАНИЕ!
    Сайт не распространяет и не хранит электронные версии произведений, а занимается лишь лишь предоставлением доступа к создаваемому пользователями каталогу ссылок на торрент-файлы, которые содержат только списки хеш-сумм, убедительная просьба с жалобами обращаться напрямую к пользователю. Файлы для обмена на трекере предоставлены пользователями сайта, и администрация не несёт ответственности за их содержание. Просьба не заливать файлы, защищенные авторскими правами, а также файлы нелегального содержания!


    _________________
    [Профиль] [ЛС]
    Показать сообщения:    
    Ответить на тему

    Текущее время: Сегодня, в 00:53

    Часовой пояс: GMT + 2



    Вы не можете начинать темы
    Вы не можете отвечать на сообщения
    Вы не можете редактировать свои сообщения
    Вы не можете удалять свои сообщения
    Вы не можете голосовать в опросах
    Вы не можете прикреплять файлы к сообщениям
    Вы не можете скачивать файлы