Register  ·  Log in
Forgot password?

  • Лист Мёбиуса (Леонид Партигул) [1988, фантастика, VHSRip]

    Reply to topic
    Author Message


    Post 11-May-2015 11:18



    Лист Мёбиуса
    Жанр: фантастика
    Год выпуска: 1988
    Продолжительность: 00:19:35
    Производство: Свердловская киностудия
    Режиссёр: Леонид Партигул
    В ролях: А. Пономарёв, Б. Бреславский, В. Сальников, А. Молчанова
    Описание: Экранизация одноименного рассказа А. Дж. Дейча. Фильм в популярной форме знакомит зрителей с современными проблемами топологии: рассказ о поезде метро, который уехал в "четвертое измерение". В метрополитене, в котором только что открылась новая ветка, исчезает состав №86, который вместе с пассажирами уехал со станции, но ни на следующей станции, ни в депо так не появился. Поиски ни к чему не приводят.
    Доп. информация: за рип с видеокассеты благодарим 71ajax74. Фильм раздается в оригинальном качестве, каким и был получен от 71ajax74.
    Качество видео: VHSRip
    Формат видео: DVD Video
    Видео: MPEG2, 720x576, 4:3, 25.000 fps, 4610 kbps
    Аудио: AC-3, 48 kHz, 256 kbps, 2/0 (L,R) ch


    Complete name : F:\Fantastika (Rus)\List Mebiusa.mpg
    Format : MPEG-PS
    File size : 695 MiB
    Duration : 19mn 35s
    Overall bit rate mode : Variable
    Overall bit rate : 4 965 Kbps
    ID : 224 (0xE0)
    Format : MPEG Video
    Format version : Version 2
    Format profile : Main@Main
    Format settings, BVOP : No
    Format settings, Matrix : Custom
    Format settings, GOP : Variable
    Format settings, picture st : Frame
    Duration : 19mn 35s
    Bit rate mode : Variable
    Bit rate : 4 610 Kbps
    Maximum bit rate : 9 400 Kbps
    Width : 720 pixels
    Height : 576 pixels
    Display aspect ratio : 4:3
    Frame rate : 25.000 fps
    Standard : PAL
    Color space : YUV
    Chroma subsampling : 4:2:0
    Bit depth : 8 bits
    Scan type : Interlaced
    Scan order : Top Field First
    Compression mode : Lossy
    Bits/(Pixel*Frame) : 0.445
    Time code of first frame : 00:00:07:05
    Time code source : Group of pictures header
    Stream size : 646 MiB (93%)
    Color primaries : BT.601 PAL
    Transfer characteristics : BT.470 System B, BT.470 System G
    Matrix coefficients : BT.601
    ID : 189 (0xBD)-128 (0x80)
    Format : AC-3
    Format/Info : Audio Coding 3
    Mode extension : CM (complete main)
    Format settings, Endianness : Big
    Muxing mode : DVD-Video
    Duration : 19mn 34s
    Bit rate mode : Constant
    Bit rate : 256 Kbps
    Channel(s) : 2 channels
    Channel positions : Front: L R
    Sampling rate : 48.0 KHz
    Compression mode : Lossy
    Delay relative to video : -192ms
    Stream size : 35.9 MiB (5%)


    Download .torrent

    Download free and at maximum speed!

    How to Download? · What is a torrent? · Ratings and Limitations

    The site does not extend and does not store electronic(digital) versions of products, and only gives access to a reference catalogue created by users on torrent-files which contain only lists of the hash-sums, the earnest entreaty, with complaints(abuse) to access directly to the user. Files for an exchange on tracker are given by users of a site, and the administration does not bear the responsibility for their maintenance. The request to not fill in the files protected by copyrights, and also files of the illegal maintenance!

    [Profile] [PM]
    Display posts from previous:    
    Reply to topic

    The time now is: Today 16:14

    All times are GMT + 3 Hours

    You cannot post new topics in this forum
    You cannot reply to topics in this forum
    You cannot edit your posts in this forum
    You cannot delete your posts in this forum
    You cannot vote in polls in this forum
    You cannot attach files in this forum
    You cannot download files in this forum