BitTorrentTracker PerecTracker.org
BitTorrentTracker PerecTracker.org
    
Регистрация  ·  Вход
 
 · 
Забыли пароль?

  • Адъютант его превосходительства (Евгений Ташков) [1969 г., мелодрама, приключения, военный, SATRip]

    Ответить на тему
     
    Автор Сообщение

    Light

    Создавать темы 11-Май-2015 06:06

           

    [Цитировать]

    Адъютант его превосходительства (5 серий)Год выпуска: 1969.
    Жанр: мелодрама, приключения, военный.
    Продолжительность: 01:11:18 + 01:22:06 + 01:16:26 + 01:10:28 + 01:13:38 (06:13:56).
    Режиссер: Евгений Ташков.
    В ролях:
    Юрий Соломин, Александр Милокостый, Владислав Стржельчик, Владимир Козел, Татьяна Иваницкая, Евгений Шутов, Николай Тимофеев, Андрей Петров, Виктор Павлов, Евгений Ташков, Юрий Назаров, Валентин Грачёв, Иван Соловьёв, Алексей Преснецов, Евгений Тетерин, Лариса Данилина, Николай Граббе, Станислав Симонов, Геннадий Карнович-Валуа, Олег Голубицкий, Валентин Смирнитский, Владимир Гросман, Игорь Старыгин, Константин Желдин, Пётр Кудлай, Николай Гриценко, Софья Павлова, Анатолий Папанов, Михаил Кокшенов, Людмила Чурсина, Юрий Леонидов (II), Сергей Цейц, Сергей Полежаев, Лев Поляков, Борис Новиков, Виктор Барков, Пётр Должанов, Владимир Маренков, Гедиминас Гирдвайнис, Иван Матвеев.
    Описание:
    Фильм посвящается первым чекистам. Капитан Павел Андреевич Кольцов весной 1919 года направлен главой ЧК Вилисом Лацисом в Добровольческую армию. В дороге он и другие белые офицеры попадают в плен к батьке Ангелу. Воспользовавшись моментом, Кольцов завладевает оружием, офицеры с боем вырываются из плена. Выслушав рассказ о побеге, командующий Владимир Зенонович Ковалевский назначает Кольцова своим адъютантом. Кольцов проводит несколько секретных операций, при этом успешно проходит все проверки своей легенды и не поддаётся на провокации контрразведки, которая, как водится, подозревает всех...
    Доп. информация:
    Страна: СССР .
    Киностудия: Мосфильм.
    Премьера: 7 апреля 1970 года.
    Авторы сценария: Игорь Болгарин, Георгий Северский.
    Оператор: Петр Терпсихоров.
    Композитор: Андрей Эшпай.
    Художники: Михаил Карташов, Валерий Филиппов.

    Релиз

    Еще постеры



    Качество: SATRip
    Формат: AVI

    Видео

    1-я серия 640x480 (1.33:1), 25 fps, XviD build 73 ~1242 kbps avg, 0.16 bit/pixel
    2-я серия 640x480 (1.33:1), 25 fps, XviD build 73 ~1142 kbps avg, 0.15 bit/pixel
    3-я серия 640x480 (1.33:1), 25 fps, XviD build 73 ~1237 kbps avg, 0.16 bit/pixel
    4-я, 5-я серии 640x480 (1.33:1), 25 fps, XviD build 73 ~1241 kbps avg, 0.16 bit/pixel
    Аудио: 48 kHz, MPEG Layer 3, 2 ch, ~128.00 kbps avg

    Отчет MI

    1-я серия

    General
    Complete name : Ad'yutant.ego.prevoshoditel'stva.(5.serij.iz.5).1969.XviD.SATRip.fenixclub\Ad'yutant.ego.prevoshoditel'stva.(1-ya.seriya.iz.5).1969.avi
    Формат : AVI
    Формат/Информация : Audio Video Interleave
    Размер файла : 704 Мбайт
    Продолжительность : 1 ч. 11 м.
    Общий поток : 1380 Кбит/сек
    Программа кодирования : VirtualDubMod 1.5.10.3 | www.virtualdub-fr.org || (build 2550/release)
    Библиотека кодирования : VirtualDubMod build 2550/release
    Видео
    Идентификатор : 0
    Формат : MPEG-4 Visual
    Профиль формата : Advanced Simple@L5
    Параметр BVOP формата : 1
    Параметр QPel формата : Нет
    Параметр GMC формата : Без точки перехода
    Параметр матрицы формата : Выборочная
    Идентификатор кодека : XVID
    Идентификатор кодека/Подсказка : XviD
    Продолжительность : 1 ч. 11 м.
    Битрейт : 1242 Кбит/сек
    Ширина : 640 пикселей
    Высота : 480 пикселей
    Соотношение сторон : 4:3
    Частота кадров : 25,000 кадров/сек
    Цветовое пространство : YUV
    Субдискретизация насыщенности : 4:2:0
    Битовая глубина : 8 бит
    Тип развёртки : Прогрессивная
    Метод сжатия : С потерями
    Бит/(Пиксели*Кадры) : 0.162
    Размер потока : 633 Мбайт (90%)
    Библиотека кодирования : XviD 73
    Аудио
    Идентификатор : 1
    Формат : MPEG Audio
    Версия формата : Version 1
    Профиль формата : Layer 3
    Идентификатор кодека : 55
    Идентификатор кодека/Подсказка : MP3
    Продолжительность : 1 ч. 11 м.
    Вид битрейта : Постоянный
    Битрейт : 128 Кбит/сек
    Каналы : 2 канала
    Частота : 48,0 КГц
    Метод сжатия : С потерями
    Размер потока : 65,3 Мбайт (9%)
    Выравнивание : Соединение по промежуткам
    Продолжительность промежутка : 40 мс. (1,00 видеокадр)
    Время предзагрузки промежутка : 504 мс.
    Библиотека кодирования : LAME3.99r
    Настройки программы : -m s -V 4 -q 2 -lowpass 17 -b 128

    2-я серия

    General
    Complete name : Ad'yutant.ego.prevoshoditel'stva.(5.serij.iz.5).1969.XviD.SATRip.fenixclub\Ad'yutant.ego.prevoshoditel'stva.(2-ya.seriya.iz.5).1969.avi
    Формат : AVI
    Формат/Информация : Audio Video Interleave
    Размер файла : 752 Мбайт
    Продолжительность : 1 ч. 22 м.
    Общий поток : 1280 Кбит/сек
    Программа кодирования : VirtualDubMod 1.5.10.3 | www.virtualdub-fr.org || (build 2550/release)
    Библиотека кодирования : VirtualDubMod build 2550/release
    Видео
    Идентификатор : 0
    Формат : MPEG-4 Visual
    Профиль формата : Advanced Simple@L5
    Параметр BVOP формата : 1
    Параметр QPel формата : Нет
    Параметр GMC формата : Без точки перехода
    Параметр матрицы формата : Выборочная
    Идентификатор кодека : XVID
    Идентификатор кодека/Подсказка : XviD
    Продолжительность : 1 ч. 22 м.
    Битрейт : 1142 Кбит/сек
    Ширина : 640 пикселей
    Высота : 480 пикселей
    Соотношение сторон : 4:3
    Частота кадров : 25,000 кадров/сек
    Цветовое пространство : YUV
    Субдискретизация насыщенности : 4:2:0
    Битовая глубина : 8 бит
    Тип развёртки : Прогрессивная
    Метод сжатия : С потерями
    Бит/(Пиксели*Кадры) : 0.149
    Размер потока : 671 Мбайт (89%)
    Библиотека кодирования : XviD 73
    Аудио
    Идентификатор : 1
    Формат : MPEG Audio
    Версия формата : Version 1
    Профиль формата : Layer 3
    Идентификатор кодека : 55
    Идентификатор кодека/Подсказка : MP3
    Продолжительность : 1 ч. 22 м.
    Вид битрейта : Постоянный
    Битрейт : 128 Кбит/сек
    Каналы : 2 канала
    Частота : 48,0 КГц
    Метод сжатия : С потерями
    Размер потока : 75,2 Мбайт (10%)
    Выравнивание : Соединение по промежуткам
    Продолжительность промежутка : 40 мс. (1,00 видеокадр)
    Время предзагрузки промежутка : 504 мс.
    Библиотека кодирования : LAME3.99r
    Настройки программы : -m s -V 4 -q 2 -lowpass 17 -b 128

    3-я серия

    General
    Complete name : Ad'yutant.ego.prevoshoditel'stva.(5.serij.iz.5).1969.XviD.SATRip.fenixclub\Ad'yutant.ego.prevoshoditel'stva.(3-ya.seriya.iz.5).1969.avi
    Формат : AVI
    Формат/Информация : Audio Video Interleave
    Размер файла : 752 Мбайт
    Продолжительность : 1 ч. 16 м.
    Общий поток : 1375 Кбит/сек
    Программа кодирования : VirtualDubMod 1.5.10.3 | www.virtualdub-fr.org || (build 2550/release)
    Библиотека кодирования : VirtualDubMod build 2550/release
    Видео
    Идентификатор : 0
    Формат : MPEG-4 Visual
    Профиль формата : Advanced Simple@L5
    Параметр BVOP формата : 1
    Параметр QPel формата : Нет
    Параметр GMC формата : Без точки перехода
    Параметр матрицы формата : Выборочная
    Идентификатор кодека : XVID
    Идентификатор кодека/Подсказка : XviD
    Продолжительность : 1 ч. 16 м.
    Битрейт : 1237 Кбит/сек
    Ширина : 640 пикселей
    Высота : 480 пикселей
    Соотношение сторон : 4:3
    Частота кадров : 25,000 кадров/сек
    Цветовое пространство : YUV
    Субдискретизация насыщенности : 4:2:0
    Битовая глубина : 8 бит
    Тип развёртки : Прогрессивная
    Метод сжатия : С потерями
    Бит/(Пиксели*Кадры) : 0.161
    Размер потока : 676 Мбайт (90%)
    Библиотека кодирования : XviD 73
    Аудио
    Идентификатор : 1
    Формат : MPEG Audio
    Версия формата : Version 1
    Профиль формата : Layer 3
    Идентификатор кодека : 55
    Идентификатор кодека/Подсказка : MP3
    Продолжительность : 1 ч. 16 м.
    Вид битрейта : Постоянный
    Битрейт : 128 Кбит/сек
    Каналы : 2 канала
    Частота : 48,0 КГц
    Метод сжатия : С потерями
    Размер потока : 70,0 Мбайт (9%)
    Выравнивание : Соединение по промежуткам
    Продолжительность промежутка : 40 мс. (1,00 видеокадр)
    Время предзагрузки промежутка : 504 мс.
    Библиотека кодирования : LAME3.99r
    Настройки программы : -m s -V 4 -q 2 -lowpass 17 -b 128

    4-я (5-я) серия

    General
    Complete name : Ad'yutant.ego.prevoshoditel'stva.(5.serij.iz.5).1969.XviD.SATRip.fenixclub\Ad'yutant.ego.prevoshoditel'stva.(4-ya (5-ya).seriya.iz.5).1969.avi
    Формат : AVI
    Формат/Информация : Audio Video Interleave
    Размер файла : 695 Мбайт
    Продолжительность : 1 ч. 10 м.
    Общий поток : 1380 Кбит/сек
    Программа кодирования : VirtualDubMod 1.5.10.3 | www.virtualdub-fr.org || (build 2550/release)
    Библиотека кодирования : VirtualDubMod build 2550/release
    Видео
    Идентификатор : 0
    Формат : MPEG-4 Visual
    Профиль формата : Advanced Simple@L5
    Параметр BVOP формата : 1
    Параметр QPel формата : Нет
    Параметр GMC формата : Без точки перехода
    Параметр матрицы формата : Выборочная
    Идентификатор кодека : XVID
    Идентификатор кодека/Подсказка : XviD
    Продолжительность : 1 ч. 10 м.
    Битрейт : 1242 Кбит/сек
    Ширина : 640 пикселей
    Высота : 480 пикселей
    Соотношение сторон : 4:3
    Частота кадров : 25,000 кадров/сек
    Цветовое пространство : YUV
    Субдискретизация насыщенности : 4:2:0
    Битовая глубина : 8 бит
    Тип развёртки : Прогрессивная
    Метод сжатия : С потерями
    Бит/(Пиксели*Кадры) : 0.162
    Размер потока : 626 Мбайт (90%)
    Библиотека кодирования : XviD 73
    Аудио
    Идентификатор : 1
    Формат : MPEG Audio
    Версия формата : Version 1
    Профиль формата : Layer 3
    Идентификатор кодека : 55
    Идентификатор кодека/Подсказка : MP3
    Продолжительность : 1 ч. 10 м.
    Вид битрейта : Постоянный
    Битрейт : 128 Кбит/сек
    Каналы : 2 канала
    Частота : 48,0 КГц
    Метод сжатия : С потерями
    Размер потока : 64,5 Мбайт (9%)
    Выравнивание : Соединение по промежуткам
    Продолжительность промежутка : 40 мс. (1,00 видеокадр)
    Время предзагрузки промежутка : 504 мс.
    Библиотека кодирования : LAME3.99r
    Настройки программы : -m s -V 4 -q 2 -lowpass 17 -b 128

    Скриншоты


    Альтернативный хост


    [
    Скачать .torrent

    Скачать торрент-файл бесплатно и на максимальной скорости!

    Как скачивать? · Что такое торрент? · Рейтинг и ограничения

    !ВНИМАНИЕ!
    Сайт не распространяет и не хранит электронные версии произведений, а занимается лишь лишь предоставлением доступа к создаваемому пользователями каталогу ссылок на торрент-файлы, которые содержат только списки хеш-сумм, убедительная просьба с жалобами обращаться напрямую к пользователю. Файлы для обмена на трекере предоставлены пользователями сайта, и администрация не несёт ответственности за их содержание. Просьба не заливать файлы, защищенные авторскими правами, а также файлы нелегального содержания!


    _________________
    [Профиль] [ЛС]
    Показать сообщения:    
    Ответить на тему

    Текущее время: Сегодня, в 04:14

    Часовой пояс: GMT + 2



    Вы не можете начинать темы
    Вы не можете отвечать на сообщения
    Вы не можете редактировать свои сообщения
    Вы не можете удалять свои сообщения
    Вы не можете голосовать в опросах
    Вы не можете прикреплять файлы к сообщениям
    Вы не можете скачивать файлы