BitTorrentTracker PerecTracker.org
BitTorrentTracker PerecTracker.org
    
Регистрация  ·  Вход
 
 · 
Забыли пароль?

  • И эхом отзовется (Геннадий Тищенко) [1987, фантастика, TeleCine, AVC]

    Ответить на тему
     
    Автор Сообщение

    Light

    Создавать темы 11-Май-2015 01:54

           

    [Цитировать]

    И эхом отзовется
    Жанр: фантастика
    Год выпуска: 1987
    Продолжительность: 00:33:45
    Производство: Азербайджанфильм
    Режиссёр: Геннадий Тищенко
    В ролях: Фахраддин Манафов, Надежда Георгиева, З. Хайдарова, Джахангир Шахмурадов
    Описание: Фантастический фильм-предупреждение о техногенной катастрофе на исследовательской станции «Роза Ветров», по мотивам научно-фантастического рассказа Геннадия Тищенко "Наследие", опубликованного в альманахе "На суше и на море" в 1980г. В фильме использованы все виды кинематографа: игровое кино, анимация, хроника. Фильм был запущен в производство незадолго до аварии на Чернобольской АЭС, после которой был закрыт. Автора (Геннадий Тищенко - и автор сценария, и режиссёр, и художник-сопостановщик, и один из двух мультипликаторов, и исполнитель одной из ролей) заставили смягчить тему опасности последствий радиации, но и после этого фильм не был выпущен на экран. В рассказе и фильме предсказаны авария на АЭС Фукусима, птичий и свиной грипп и т.п.
    Доп. информация: Фильм получен несколько лет назад от одного из пользователей рутрекера (к сожалению не помню его ник) и появление раздачи на рутрекере согласовано с Геннадием Тищенко. От себя добавлю, что качество данного рипа отличается от того, что было издано в видеоприложении к журналу Мир фантастики №4 2011.
    Семпл: https://yadi.sk/i/5iF9-r9ZgYNrZ
    Качество видео: TeleCine
    Формат видео: MKV
    Видео: AVC, 688x516, 4:3, 23.976 fps, 1300 kbps
    Аудио: AC-3, 48 kHz, 384 kbps, 2/0 (L,R) ch

    MediaInfo

    General
    Unique ID : 245023437494655790203446043319251277831 (0xB855CC2B3D05DD7D848E1DB7BB749807)
    Complete name : F:\Fantastika (Rus)\Gennadiy Tishenko\I ehom otzovetsia.mkv
    Format : Matroska
    Format version : Version 4 / Version 2
    File size : 407 MiB
    Duration : 33mn 44s
    Overall bit rate : 1 686 Kbps
    Encoded date : UTC 2015-05-04 15:16:35
    Writing application : mkvmerge v7.7.0 ('Six Voices') 32bit built on Feb 28 2015 23:23:00
    Writing library : libebml v1.3.1 + libmatroska v1.4.2
    _STATISTICS_WRITING_APP : mkvmerge v7.7.0 ('Six Voices') 32bit built on Feb 28 2015 23:23:00
    _STATISTICS_WRITING_DATE_UT : 2015-05-04 15:16:35
    _STATISTICS_TAGS : BPS DURATION NUMBER_OF_FRAMES NUMBER_OF_BYTES
    DURATION : 00:33:44.672000000
    NUMBER_OF_FRAMES : 63267
    NUMBER_OF_BYTES : 97178112
    Video
    ID : 1
    Format : AVC
    Format/Info : Advanced Video Codec
    Format profile : High@L4
    Format settings, CABAC : Yes
    Format settings, ReFrames : 16 frames
    Codec ID : V_MPEG4/ISO/AVC
    Duration : 33mn 44s
    Bit rate : 1 300 Kbps
    Width : 688 pixels
    Height : 516 pixels
    Display aspect ratio : 4:3
    Frame rate mode : Constant
    Frame rate : 23.976 fps
    Color space : YUV
    Chroma subsampling : 4:2:0
    Bit depth : 8 bits
    Scan type : Progressive
    Bits/(Pixel*Frame) : 0.153
    Stream size : 306 MiB (75%)
    Writing library : x264 core 146 r2538 121396c
    Encoding settings : cabac=1 / ref=16 / deblock=1:-1:-1 / analyse=0x3:0x133 / me=umh / subme=10 / psy=1 / psy_rd=1.00:0.15 / mixed_ref=1 / me_range=24 / chroma_me=1 / trellis=2 / 8x8dct=1 / cqm=0 / deadzone=21,11 / fast_pskip=1 / chroma_qp_offset=-3 / threads=12 / lookahead_threads=2 / sliced_threads=0 / nr=0 / decimate=1 / interlaced=0 / bluray_compat=0 / constrained_intra=0 / bframes=8 / b_pyramid=2 / b_adapt=2 / b_bias=0 / direct=3 / weightb=1 / open_gop=0 / weightp=2 / keyint=240 / keyint_min=23 / scenecut=40 / intra_refresh=0 / rc_lookahead=60 / rc=2pass / mbtree=1 / bitrate=1300 / ratetol=1.0 / qcomp=0.60 / qpmin=0 / qpmax=69 / qpstep=4 / cplxblur=20.0 / qblur=0.5 / ip_ratio=1.40 / aq=1:1.00
    Default : Yes
    Forced : No
    Audio
    ID : 2
    Format : AC-3
    Format/Info : Audio Coding 3
    Mode extension : CM (complete main)
    Format settings, Endianness : Big
    Codec ID : A_AC3
    Duration : 33mn 44s
    Bit rate mode : Constant
    Bit rate : 384 Kbps
    Channel(s) : 2 channels
    Channel positions : Front: L R
    Sampling rate : 48.0 KHz
    Compression mode : Lossy
    Stream size : 92.7 MiB (23%)
    Default : Yes
    Forced : No

    Скриншоты

    Скачать .torrent

    Скачать торрент-файл бесплатно и на максимальной скорости!

    Как скачивать? · Что такое торрент? · Рейтинг и ограничения

    !ВНИМАНИЕ!
    Сайт не распространяет и не хранит электронные версии произведений, а занимается лишь лишь предоставлением доступа к создаваемому пользователями каталогу ссылок на торрент-файлы, которые содержат только списки хеш-сумм, убедительная просьба с жалобами обращаться напрямую к пользователю. Файлы для обмена на трекере предоставлены пользователями сайта, и администрация не несёт ответственности за их содержание. Просьба не заливать файлы, защищенные авторскими правами, а также файлы нелегального содержания!


    _________________
    [Профиль] [ЛС]
    Показать сообщения:    
    Ответить на тему

    Текущее время: Сегодня, в 04:12

    Часовой пояс: GMT + 2



    Вы не можете начинать темы
    Вы не можете отвечать на сообщения
    Вы не можете редактировать свои сообщения
    Вы не можете удалять свои сообщения
    Вы не можете голосовать в опросах
    Вы не можете прикреплять файлы к сообщениям
    Вы не можете скачивать файлы