Register  ·  Log in
Forgot password?

  • Бэтмен против Робина / Batman vs. Robin (Джей Олива / Jay Oliva) [2015, мультфильм, боевик, приключения, BDRip] 3 VO

    Reply to topic
    Author Message


    Post 11-May-2015 02:54



    Бэтмен против Робина
    Batman vs. Robin
    Страна: США
    Жанр: мультфильм, боевик, приключения
    Продолжительность: 01:20:00
    Год выпуска: 2015-Перевод: Любительский (Многоголосый закадровый) FISH
    Перевод: Любительский (Многоголосый закадровый) DuBDraG ProJECT
    Перевод: Любительский (Многоголосый закадровый) ZM-SHOW
    Русские субтитры: нет
    Режиссёр: Джей Олива / Jay Oliva-Роли озвучивали: Стюарт Аллан, Трой Бэйкер, Кевин Конрой, Тревор Дивэлл, Робин Аткин Даунс, Гриффин Глюк, Грэй Гриффин-Описание: В Готем возвращается тайная масонская организация Суд Сов, берущая на себя власть казнить как преступников, так и просто неугодных им городских деятелей. Выясняется, что именно они стали когда-то причиной убийства родителей Уэйна- -- Большое спасибо РГ FISH за предоставление русской дороги!
    - Большое спасибо РГ DuBDraG ProJECT за предоставление чистых голосов!
    - Большое спасибо РГ ZM-SHOW за предоставление чистых голосов!
    - Большое спасибо РГ Dakota Family Translators за предоставление русских субтитров!
    - Работа со звуком xfiles
    - Работа с BDRemux'ом -Azureus--Качество: BDRip
    Формат: AVI
    Видео: 688x384 (1.79:1), 23,976 fps, XviD 66 ~1 169 kbps avg, 0.18 bit/pixel
    Аудио: 48.0 kHz, MPEG Layer 3, 2/0 (L,R) ch, ~128 kbps |FISH|
    Аудио: 48.0 kHz, MPEG Layer 3, 2/0 (L,R) ch, ~128 kbps |DuBDraG ProJECT| отдельно
    Аудио: 48.0 kHz, MPEG Layer 3, 2/0 (L,R) ch, ~128 kbps |ZM-SHOW| отдельно
    Субтитры: отсутствуют


    Complete name : D:\incarcare\rip gata\Batman.vs.Robin.2015.BDRip.747[dragomire]\Batman.vs.Robin.2015.BDRip.747[dragomire]
    Format : AVI
    Format/Info : Audio Video Interleave
    File size : 747 MiB
    Duration : 1h 19mn
    Overall bit rate : 1 306 Kbps
    Writing application : VirtualDubMod (build 2540/release)
    Writing library : VirtualDubMod build 2540/release
    ID : 0
    Format : MPEG-4 Visual
    Format profile : Advanced Simple@L5
    Format settings, BVOP : 1
    Format settings, QPel : No
    Format settings, GMC : No warppoints
    Format settings, Matrix : Custom
    Codec ID : XVID
    Codec ID/Hint : XviD
    Duration : 1h 19mn
    Bit rate : 1 169 Kbps
    Width : 688 pixels
    Height : 384 pixels
    Display aspect ratio : 16:9
    Frame rate : 23.976 fps
    Color space : YUV
    Chroma subsampling : 4:2:0
    Bit depth : 8 bits
    Scan type : Progressive
    Compression mode : Lossy
    Bits/(Pixel*Frame) : 0.184
    Stream size : 669 MiB (89%)
    Writing library : XviD 66
    ID : 1
    Format : MPEG Audio
    Format version : Version 1
    Format profile : Layer 3
    Codec ID : 55
    Codec ID/Hint : MP3
    Duration : 1h 19mn
    Bit rate mode : Constant
    Bit rate : 128 Kbps
    Channel(s) : 2 channels
    Sampling rate : 48.0 KHz
    Compression mode : Lossy
    Stream size : 73.2 MiB (10%)
    Alignment : Aligned on interleaves
    Interleave, duration : 42 ms (1.00 video frame)
    Interleave, preload duratio : 504 ms


    Download .torrent

    Download free and at maximum speed!

    How to Download? · What is a torrent? · Ratings and Limitations

    The site does not extend and does not store electronic(digital) versions of products, and only gives access to a reference catalogue created by users on torrent-files which contain only lists of the hash-sums, the earnest entreaty, with complaints(abuse) to access directly to the user. Files for an exchange on tracker are given by users of a site, and the administration does not bear the responsibility for their maintenance. The request to not fill in the files protected by copyrights, and also files of the illegal maintenance!

    [Profile] [PM]
    Display posts from previous:    
    Reply to topic

    The time now is: Today 15:34

    All times are GMT + 3 Hours

    You cannot post new topics in this forum
    You cannot reply to topics in this forum
    You cannot edit your posts in this forum
    You cannot delete your posts in this forum
    You cannot vote in polls in this forum
    You cannot attach files in this forum
    You cannot download files in this forum