BitTorrentTracker PerecTracker.org
BitTorrentTracker PerecTracker.org
    
Регистрация  ·  Вход
 
 · 
Забыли пароль?

  • Гадание на ромашке / Karikakramäng (Пеэтер Урбла, Тоомас Тахвель, Пеэтер Симм) [1977, Драма, мелодрама, SATRip] Sub Rus + Original Est

    Ответить на тему
     
    Автор Сообщение

    Light

    Создавать темы 10-Май-2015 21:42

           

    [Цитировать]

    Гадание на ромашке / Karikakramäng
    Жанр: Драма, мелодрама
    Год выпуска: 1977
    Продолжительность: 01:24:23
    Производство: Таллинфильм
    Язык: эстонский
    Перевод: субтитры (Aivar)
    Режиссёр: Пеэтер Урбла, Тоомас Тахвель, Пеэтер Симм
    В ролях: Элле Кулль, Лембит Ульфсак, Рудольф Аллаберт, Кюллики Сальдре-Тоол, Микк Микивер, Юри Ярвет, Хеленд Пеэп, Энн Клоорен, Арво Кукумяги, Зоя Цурило, Яан Брезауски, Олег Хабалов, Карл Калкун, Арнольд Алтмяэ, Антс Андер, Лариса Удовиченко, Роберт Гутман, Энн Краам, Марье Метсур, Калью Орро
    Описание: Киноальманах состоит из трех новелл-экранизаций: "Променад" (по новелле К.Воннегута "Долгая прогулка в вечность"), "Браконьер", "Татуировка" (по мотивам новеллы К.Саабера)
    Доп. информация: художественный руководитель фильма Андрей Тарковский
    Семпл: https://yadi.sk/i/7UcwtuozgWwG8
    Качество видео: SATRip
    Формат видео: AVI
    Формат субтитров: softsub (SRT)
    Видео: XVID, 640x464, 25.000 fps, 1018 Kbps
    Аудио: MP3, 48.1 kHz, 2 ch, 128 kbps (эстонский)

    MediaInfo

    General
    Complete name : F:\A.Tarkovskiy\Gadanie na Romashke\Karikakramang (drama,1977).avi
    Format : AVI
    Format/Info : Audio Video Interleave
    File size : 700 MiB
    Duration : 1h 24mn
    Overall bit rate mode : Variable
    Overall bit rate : 1 160 Kbps
    Writing application : VirtualDubMod 1.5.10.2 (build 2540/release)
    Writing library : VirtualDubMod build 2540/release
    Video
    ID : 0
    Format : MPEG-4 Visual
    Format profile : Advanced Simple@L5
    Format settings, BVOP : 2
    Format settings, QPel : No
    Format settings, GMC : No warppoints
    Format settings, Matrix : Default (H.263)
    Muxing mode : Packed bitstream
    Codec ID : XVID
    Codec ID/Hint : XviD
    Duration : 1h 24mn
    Bit rate : 1 018 Kbps
    Width : 640 pixels
    Height : 464 pixels
    Display aspect ratio : 1.379
    Frame rate : 25.000 fps
    Color space : YUV
    Chroma subsampling : 4:2:0
    Bit depth : 8 bits
    Scan type : Progressive
    Compression mode : Lossy
    Bits/(Pixel*Frame) : 0.137
    Stream size : 614 MiB (88%)
    Writing library : XviD 1.2.1 (UTC 2008-12-04)
    Audio
    ID : 1
    Format : MPEG Audio
    Format version : Version 1
    Format profile : Layer 3
    Mode : Joint stereo
    Mode extension : MS Stereo
    Codec ID : 55
    Codec ID/Hint : MP3
    Duration : 1h 24mn
    Bit rate mode : Variable
    Bit rate : 128 Kbps
    Channel(s) : 2 channels
    Sampling rate : 44.1 KHz
    Compression mode : Lossy
    Stream size : 78.6 MiB (11%)
    Alignment : Aligned on interleaves
    Interleave, duration : 26 ms (0.65 video frame)
    Interleave, preload duratio : 217 ms
    Writing library : LAME3.90.
    Encoding settings : -m j -V 4 -q 2 -lowpass 17.6 --abr 128

    Скриншоты

    Пример субтитров

    177
    00:31:48,982 --> 00:31:52,046
    Это уже третий случай.
    178
    00:31:55,069 --> 00:32:01,566
    И ясно то, что посторонний...
    179
    00:32:06,590 --> 00:32:09,719
    Ясно, что это не посторонний.
    180
    00:32:10,225 --> 00:32:12,240
    Слишком хорошо знает лес.
    181
    00:32:19,901 --> 00:32:21,949
    Стрелок один из нас.
    182
    00:32:46,835 --> 00:32:49,757
    Мейер, что ты об этом думаешь?
    183
    00:32:49,958 --> 00:32:52,219
    Я?
    184
    00:32:57,031 --> 00:33:02,917
    Ну, я думаю, что надо кого-то...
    185
    00:33:07,983 --> 00:33:11,245
    Что ты на меня уставился?
    186
    00:33:11,446 --> 00:33:16,116
    Лучше у Наатаса спроси!
    - У меня?
    187
    00:33:16,617 --> 00:33:19,219
    Нет.
    188
    00:33:22,580 --> 00:33:25,335
    У Оскара ведь
    разрешение на охоту не было.
    189
    00:33:35,773 --> 00:33:41,569
    Я, конечно, понимаю. Да...
    190
    00:33:42,355 --> 00:33:45,246
    Не буду отпираться:
    191
    00:33:45,713 --> 00:33:49,978
    иногда бывало, что стрелял
    во время запрета.
    Скачать .torrent

    Скачать торрент-файл бесплатно и на максимальной скорости!

    Как скачивать? · Что такое торрент? · Рейтинг и ограничения

    !ВНИМАНИЕ!
    Сайт не распространяет и не хранит электронные версии произведений, а занимается лишь лишь предоставлением доступа к создаваемому пользователями каталогу ссылок на торрент-файлы, которые содержат только списки хеш-сумм, убедительная просьба с жалобами обращаться напрямую к пользователю. Файлы для обмена на трекере предоставлены пользователями сайта, и администрация не несёт ответственности за их содержание. Просьба не заливать файлы, защищенные авторскими правами, а также файлы нелегального содержания!


    _________________
    [Профиль] [ЛС]
    Показать сообщения:    
    Ответить на тему

    Текущее время: Сегодня, в 10:41

    Часовой пояс: GMT + 2



    Вы не можете начинать темы
    Вы не можете отвечать на сообщения
    Вы не можете редактировать свои сообщения
    Вы не можете удалять свои сообщения
    Вы не можете голосовать в опросах
    Вы не можете прикреплять файлы к сообщениям
    Вы не можете скачивать файлы